новый адрес
Ссылка на приватное зеркало всего за 1$. Внимание количество ограничено!!!

iTunes

1+1

iTunes

мы

WEB-DL

1

iTunes

Чернобыль

iTunes

Ральф против интернета

Лицензия

ПШазам

Лицензия

Оно 2

Лицензия

30
pack

Вам бонус

ВАЖНО

!!Акция!!

Alien_RageХит недели

RePack

Resident Evil 21

ИГРА 18+

pack

RePack

jed

!!Акция!!

Alien_Rage

RePack

fifa19

RePack

Assassins Creed: Odyssey

RePack

NEED FOR SPEED™ PAYBACK

3 сезон

9 сезон

Бесстыжие 9 сезон

Все сериалы

все сериалы на PB.wtf

RePack

FAR CRY 5
Ребята, катастрофически не хватает 1900р. для оплаты серверов за Октябрь (всвязи с блокировками трафик упал в 3 раза), 1-2р., выручайте.
  

Повесть о молодожёнах (Сергей Сиделёв) [1959, СССР, мелодрама, DVDRip от AVP Studio] pb.wtf

Повесть о молодожёнах через торрент pb.wtf

Размер: 1.09 GB | Добавлен: 1 год 11 мес. назад | Торрент скачан:15 раз
Скачать  

27-12-2017 09:27 Повесть о молодожёнах Скачать торрент  

Повесть о молодожёнах
Страна: СССР
Производство: Ленфильм

Жанр: мелодрама
Год выпуска: 1959
Продолжительность: 01:20:43

Перевод: Не требуется
Cубтитры: нет
Оригинальная аудиодорожка: русский

Режиссер: Сергей Сиделёв

В ролях:
Анатолий Кузнецов, Кюнна Игнатова, Вера Пашенная, Татьяна Пельтцер, Евгений Леонов, Гренада Мнацаканова, Алиса Фрейндлих, Евгения Уралова, Светлана Мазовецкая, Владимир Поболь...
Об актёрах подробней

Описание:
Ежегодно в Доме над Невой собираются его бывшие воспитанники. С заведующей Ольгой Николаевной (Вера Пашенная) всегда можно посоветоваться, поделиться радостями и невзгодами. Пришла сюда и Шура Кюнна Игнатова) вместе с мужем Володей (Анатолий Кузнецов). Старые друзья хорошо приняли новобрачных, пожелали счастья. Но вскоре глупая ссора развела молодых... И как знать, чем бы все это кончилось, если бы на помощь не пришли друзья. Это настоящее кино о настоящей дружбе.

Источник: DVD9 R5
Качество видео: DVDRip
Формат видео: AVI

Видео: 688x512 (4:3), 25 fps, XviD ~ 1729 kbps avg, 0.196 bit/pixel
Аудио: 48 kHz, Dolby Digital AC3 2.0, 192 kbps

Раздача от:
Общее
Полное имя : Povest.o.molodozhenah.1959.DVDRip_[New-team]_by_AVP_Studio.avi
Формат : AVI
Формат/Информация : Audio Video Interleave
Размер файла : 1,09 Гбайт
Продолжительность : 1 ч. 20 м.
Общий поток : 1931 Кбит/сек
Программа кодирования : VirtualDubMod 1.5.10.3 | www.virtualdub-fr.org || (build 2550/release)
Библиотека кодирования : VirtualDubMod build 2550/release

Видео
Идентификатор : 0
Формат : MPEG-4 Visual
Профиль формата : Advanced Simple@L5
Настройки формата : BVOP1 / Custom Matrix
Параметр BVOP формата : 1
Параметр QPel формата : Нет
Параметр GMC формата : Без точки перехода
Параметр матрицы формата : Выборочная
Идентификатор кодека : XVID
Идентификатор кодека/Подсказка : XviD
Продолжительность : 1 ч. 20 м.
Битрейт : 1729 Кбит/сек
Ширина : 688 пикселей
Высота : 512 пикселей
Соотношение сторон : 4:3
Частота кадров : 25,000 кадров/сек
Цветовое пространство : YUV
Субдискретизация насыщенности : 4:2:0
Битовая глубина : 8 бит
Тип развёртки : Прогрессивная
Метод сжатия : С потерями
Бит/(Пиксели*Кадры) : 0.196
Размер потока : 998 Мбайт (90%)
Библиотека кодирования : XviD 73

Аудио
Идентификатор : 1
Формат : AC-3
Формат/Информация : Audio Coding 3
Идентификатор кодека : 2000
Продолжительность : 1 ч. 20 м.
Вид битрейта : Постоянный
Битрейт : 192 Кбит/сек
Каналы : 2 канала
Расположение каналов : Front: L R
Частота : 48,0 КГц
Частота кадров : 31,250 кадров/сек (1536 SPF)
Битовая глубина : 16 бит
Метод сжатия : С потерями
Размер потока : 111 Мбайт (10%)
Выравнивание : Разделение по промежуткам
Продолжительность промежутка : 40 мс. (1,00 видеокадр)
Время предзагрузки промежутка : 500 мс
pb.wtf



Скачать Повесть о молодожёнах через торрент http://i102.fastpic.ru/big/2017/1227/ea/04b47e0a66b535da119cd4dff29ed3ea.png Скачать фильм Повесть о молодожёнах через торрент бесплантно в хорошем качестве Описание:Ежегодно в Доме над Невой собираются его бывшие воспитанники. С заведующей Ольгой Николаевной (Вера Пашенная) всегда можно ... 10 10 1
Info! Золотая раздача, скачанное не засчитывается.
Торрент: Зарегистрирован [2017-12-27 09:27] · скачан: 15 раз
Статус: √ проверено
Размер: 1.09 GB
Как cкачать? Как скачать Повесть о молодожёнах через торрент | qTorrent

% Раздел Тема Автор DL S | L
Кино СССР [ 1.09 GB ] Повесть о молодожёнах [1959 СССР DVDRip-AVC от AVP Studio] AVP Studio Скачать
1 | 0
Кино СССР [ 745 MB ] Повесть о молодожёнах [1959 СССР DVDRip от AVP Studio] AVP Studio Скачать
1 | 0

28-11-2019 20:33  

Отключить всю рекламу на сайте

    Дорогой пользователь! Огромная просьба, поблагодарите релизера, оцените раздачу и оставьте свои комментарий, если Вы скачали Повесть о молодожёнах через торрент бесплатно! Внесите свою лепту в развитие PiratBit!
    Комментировать посты могут только пользователи прошедшие не сложную регистрацию
    Показать сообщения:    

    Повесть о молодожёнах через торрент
    Скачать бесплатно Повесть о молодожёнах
    Повесть о молодожёнах скачать торрент
    Повесть о молодожёнах смотреть онлайн
    Cкачать фильм Повесть о молодожёнах бесплатно
    Повесть о молодожёнах скачать торрент в хорошем качестве
    Повесть о молодожёнах смотреть онлайн бесплатно в хорошем качестве


    Вы не можете начинать темы
    Вы не можете отвечать на сообщения
    Вы не можете редактировать свои сообщения
    Вы не можете удалять свои сообщения
    Вы не можете голосовать в опросах
    Вы не можете прикреплять файлы к сообщениям
    Вы можете скачивать файлы