Ссылка на приватное зеркало всего за 1$. Внимание количество ограничено!!!

iTunes

iTunes

iTunes

1

iTunes

iTunes

iTunes

iTunes

iTunes

30
pack

$ от Little Big

ВАЖНО

!!Акция!!

Alien_RageХит недели

RePack

Resident Evil 21

ИГРА 18+

pack

RePack

jed

!!Акция!!

Alien_Rage

RePack

fifa19

RePack

Assassins Creed: Odyssey

RePack

NEED FOR SPEED™ PAYBACK

4 сезон

9 сезон

Бесстыжие 9 сезон

Все сериалы

все сериалы на PB.wtf

RePack

FAR CRY 5
  

Скайлайн 2 / Beyond Skyline (Лайам О’Доннелл) [2017, ужасы, фантастика, боевик, триллер, приключения, WEB-DL 720p] DUB [AMAZON Version] [iTunes] pb.wtf

Скайлайн 2 через торрент pb.wtf

Размер: 2.81 GB | Добавлен: 2 года 6 мес. назад | Торрент скачан:336 раз
Скачать  

27-12-2017 21:10 Скайлайн 2 Скачать торрент  

Скайлайн 2 / Beyond SkylineГод выпуска: 2017
Страна: Сингапур , Великобритания , Индонезия , Канада , США Китай
Жанр: ужасы, фантастика, боевик, триллер, приключения
Продолжительность: 01:46:34
Перевод: Дублированный | iTunes
Субтитры: Английские

Режиссер: Лайам О’Доннелл

rating

В ролях:

Фрэнк Грилло, Бояна Новакович, Ико Уайс, Каллэн Мулвей, Валентайн Пайен, Бетти Гэбриел, Джек Чоссе, Кевин О’Доннелл, Крис Т. Адамс, Тони Блэк

Описание:

В мире — хаос и паника. Небо закрыли нависающие над городами космические корабли, которые через огромные столпы света затягивают к себе на борт тысячи людей прямо с улиц. Чтобы найти похищенного сына, бесстрашному детективу придется проникнуть на корабль агрессивных пришельцев, отбить атаку этих разъяренных тварей и… попытаться вернуть планету землянам.

Качество: WEB-DL 720p | AMAZON Version
Формат: MKV
Видео кодек: H.264
Аудио кодек: AC3

Видео: MPEG-4 AVC, 1280x528, 2748 Кbit/s, 23.976 fps
Аудио#1: 48 kHz, AC3, 5.1, 384 Kbps | Дублированный | iTunes | RUS |
Аудио#2: 48 kHz, AC3, 5.1, 640 Kbps | Оригинал | ENG |


Релиз от:
скриншот   скриншот   скриншот   скриншот   скриншот  

General
Unique ID : 89320496998438484452077862900662742872 (0x43328081DF25372397535A1FA03F2F58)
Complete name : G:VideoSSDBeyond Skyline.2017.AMZN.WEB-DL.720p.ExKinoRay.mkv
Format : Matroska
Format version : Version 4 / Version 2
File size : 2.81 GiB
Duration : 1 h 46 min
Overall bit rate mode : Variable
Overall bit rate : 3 774 kb/s
Movie name : Beyond Skyline 2017 from ExKinoRay
Encoded date : UTC 2017-12-27 19:56:48
Writing application : mkvmerge v19.0.0 ('Brave Captain') 64-bit
Writing library : libebml v1.3.5 + libmatroska v1.4.8

Video
ID : 1
Format : AVC
Format/Info : Advanced Video Codec
Format profile : High@L3.1
Format settings : CABAC / 5 Ref Frames
Format settings, CABAC : Yes
Format settings, ReFrames : 5 frames
Codec ID : V_MPEG4/ISO/AVC
Duration : 1 h 46 min
Bit rate mode : Variable
Bit rate : 2 748 kb/s
Maximum bit rate : 4 500 kb/s
Width : 1 280 pixels
Height : 528 pixels
Display aspect ratio : 2.40:1
Original display aspect rat : 2.40:1
Frame rate mode : Constant
Frame rate : 23.976 (24000/1001) FPS
Color space : YUV
Chroma subsampling : 4:2:0
Bit depth : 8 bits
Scan type : Progressive
Bits/(Pixel*Frame) : 0.170
Stream size : 2.05 GiB (73%)
Language : English
Default : Yes
Forced : No
Color range : Limited
Color primaries : BT.709
Transfer characteristics : BT.709
Matrix coefficients : BT.709

Audio #1
ID : 2
Format : AC-3
Format/Info : Audio Coding 3
Codec ID : A_AC3
Duration : 1 h 46 min
Bit rate mode : Constant
Bit rate : 384 kb/s
Channel(s) : 6 channels
Channel positions : Front: L C R, Side: L R, LFE
Sampling rate : 48.0 kHz
Frame rate : 31.250 FPS (1536 SPF)
Bit depth : 16 bits
Compression mode : Lossy
Stream size : 293 MiB (10%)
Title : iTunes
Language : Russian
Service kind : Complete Main
Default : Yes
Forced : No

Audio #2
ID : 3
Format : AC-3
Format/Info : Audio Coding 3
Codec ID : A_AC3
Duration : 1 h 46 min
Bit rate mode : Constant
Bit rate : 640 kb/s
Channel(s) : 6 channels
Channel positions : Front: L C R, Side: L R, LFE
Sampling rate : 48.0 kHz
Frame rate : 31.250 FPS (1536 SPF)
Bit depth : 16 bits
Compression mode : Lossy
Stream size : 488 MiB (17%)
Title : Original
Language : English
Service kind : Complete Main
Default : No
Forced : No

Text
ID : 4
Format : UTF-8
Codec ID : S_TEXT/UTF8
Codec ID/Info : UTF-8 Plain Text
Duration : 1 h 41 min
Bit rate : 30 b/s
Count of elements : 903
Stream size : 22.4 KiB (0%)
Language : English
Default : No
Forced : No

Menu
00:00:00.000 : en:Chapter 01
00:11:44.746 : en:Chapter 02
00:23:32.453 : en:Chapter 03
00:31:09.785 : en:Chapter 04
00:40:53.368 : en:Chapter 05
00:53:48.392 : en:Chapter 06
01:03:05.532 : en:Chapter 07
01:16:07.688 : en:Chapter 08
01:25:13.608 : en:Chapter 09
01:32:10.900 : en:Chapter 10

pb.wtf



Скачать Скайлайн 2 через торрент http://lostpix.com/img/2017-12/27/p59d7kyoeluj1wrx5bj2leub2.jpg Скачать фильм Скайлайн 2 через торрент бесплантно в хорошем качестве Описание: В мире — хаос и паника. Небо закрыли нависающие над городами космические корабли, которые через огромные столпы света затягивают ... 10 10 10
Торрент: Зарегистрирован [2017-12-27 21:10] · скачан: 336 раз
Статус: √ проверено
Размер: 2.81 GB
Как cкачать? Как скачать Скайлайн 2 через торрент | qTorrent

% Раздел Тема Автор DL S | L
Фильмы [HD 720p, 1080p] (Хороший звук DUB, MVO) [ 6.07 GB ] Скайлайн 2 / Beyond Skyline [2017 BDRip 720p] DUB [] bober100 Скачать
1 | 0
Фильмы [HD 720p, 1080p] (Хороший звук DUB, MVO) [ 10.74 GB ] Скайлайн 2 / Beyond Skyline [2017 BDRip 1080p] DUB [] bober100 Скачать
1 | 0
Фильмы 2017 [DVDrip, WEB-DLRip, HDrip] (DUB, MVO) [ 1.47 GB ] Скайлайн 2 / Beyond Skyline [2017 BDRip-AVC] sokol_ok Скачать
2 | 0
Фильмы 2017 [DVDrip, WEB-DLRip, HDrip] (DUB, MVO) [ 2.21 GB ] Скайлайн 2 / Beyond Skyline [2017 BDRip-AVC] sokol_ok Скачать
2 | 0
Фильмы 2017 [DVDrip, WEB-DLRip, HDrip] (DUB, MVO) [ 1.46 GB ] Скайлайн 2 / Beyond Skyline [2017 BDRip] - [] Twi7ter Скачать
1 | 0
Фильмы 2017 [DVDrip, WEB-DLRip, HDrip] (DUB, MVO) [ 2.17 GB ] Скайлайн 2 / Beyond Skyline [2017 BDRip-AVC] - [] - ExKinoRay Enigma2010 Скачать
1 | 0
Фильмы (Blu-ray, BD-Remux, HDDVD) [ 18.06 GB ] Скайлайн 2 / Beyond Skyline [2017 Blu-ray 1080p] DUB [Rus Transfer] [] bober100 Скачать
1 | 0

28-11-2019 20:33  

Отключить всю рекламу на сайте

    Дорогой пользователь! Огромная просьба, поблагодарите релизера, оцените раздачу и оставьте свои комментарий, если Вы скачали Скайлайн 2 через торрент бесплатно! Внесите свою лепту в развитие PiratBit!
    Комментировать посты могут только пользователи прошедшие не сложную регистрацию
    Показать сообщения:    

    Скайлайн 2 через торрент
    Скачать бесплатно Скайлайн 2
    Скайлайн 2 скачать торрент
    Скайлайн 2 смотреть онлайн
    Cкачать фильм Скайлайн 2 бесплатно
    Скайлайн 2 скачать торрент в хорошем качестве
    Скайлайн 2 смотреть онлайн бесплатно в хорошем качестве


    Вы не можете начинать темы
    Вы не можете отвечать на сообщения
    Вы не можете редактировать свои сообщения
    Вы не можете удалять свои сообщения
    Вы не можете голосовать в опросах
    Вы не можете прикреплять файлы к сообщениям
    Вы можете скачивать файлы