Ссылка на приватное зеркало всего за 1$. Внимание количество ограничено!!!

iTunes

iTunes

iTunes

1

iTunes

iTunes

iTunes

iTunes

iTunes

30
pack

$ от Little Big

ВАЖНО

!!Акция!!

Alien_RageХит недели

RePack

Resident Evil 21

ИГРА 18+

pack

RePack

jed

!!Акция!!

Alien_Rage

RePack

fifa19

RePack

Assassins Creed: Odyssey

RePack

NEED FOR SPEED™ PAYBACK

4 сезон

9 сезон

Бесстыжие 9 сезон

Все сериалы

все сериалы на PB.wtf

RePack

FAR CRY 5
  

Отступник / Romans (Людвиг Шаммасян, Пол Шаммасян) [2017, Драма, WEB-DL 1080p] MVO [Лицензия / iTunes] pb.wtf

Отступник через торрент pb.wtf

Размер: 3.22 GB | Добавлен: 2 года 6 мес. назад | Торрент скачан:317 раз
Скачать  

27-12-2017 22:03 Отступник Скачать торрент  

Отступник / RomansГод выпуска: 2017
Страна: Великобритания
Жанр: Драма
Продолжительность: 01:32:19
Перевод: Профессиональный многоголосый [Лицензия / iTunes]
Субтитры: отсутствуют

Режиссер: Людвиг Шаммасян, Пол Шаммасян

rating

В ролях:

Орландо Блум, Джанет Монтгомери, Чарли Крид-Майлз, Энн Рейд, Джош Майерс, Дебора Рок, Алекс Фернс, Джо Уитли, Кайл Риис, Джеймс Смилли

Описание:

Страхи прошлого неотступно преследует Малкольма: ещё ребёнком герой Орландо Блума получил сильнейшую психологическую травму. Больше двадцати лет гремучая смесь из терзаемых противоречий, оскорбления, непонимания, разочарования и отсутствия веры в Бога овладевают героем. Побороть себя и отпустить прошлое, не смотря на всепоглощающую жажду мести, не просто, но именно это предстоит пережить зрителям на равне с главным героем.

Качество: WEB-DL 1080p
Формат: MKV
Видео кодек: H.264
Аудио кодек: AC3

Видео: 1920x802 at 24.000 fps, MPEG-4 AVC, ~4610 kbps avg
Аудио#1: Russian: 48 kHz, AC3, 3/2 (L,C,R,l,r) + LFE ch, ~384.00 kbps avg

скриншот   скриншот   скриншот  

Общее
Уникальный идентификатор : 207664757451094870398698678795221348806 (0x9C3AC708B9D892ABB2213E87807C31C6)
Полное имя : D:\0tCtupH1k.2O17.D.WEB-DL.1O8Op.mkv
Формат : Matroska
Версия формата : Version 2
Размер файла : 3,22 Гбайт
Продолжительность : 1 ч. 32 м.
Общий поток : 4996 Кбит/сек
Дата кодирования : UTC 2017-12-27 19:29:43
Программа кодирования : mkvmerge v8.3.0 ('Over the Horizon') 64bit
Библиотека кодирования : libebml v1.3.1 + libmatroska v1.4.2

Видео
Идентификатор : 1
Формат : AVC
Формат/Информация : Advanced Video Codec
Профиль формата : High@L4
Параметр CABAC формата : Да
Параметр ReFrames формата : 5 кадров
Идентификатор кодека : V_MPEG4/ISO/AVC
Продолжительность : 1 ч. 32 м.
Битрейт : 4610 Кбит/сек
Ширина : 1920 пикселей
Высота : 802 пикселя
Соотношение сторон : 2,40:1
Режим частоты кадров : Постоянный
Частота кадров : 24,000 кадра/сек
Цветовое пространство : YUV
Субдискретизация насыщенности : 4:2:0
Битовая глубина : 8 бит
Тип развёртки : Прогрессивная
Бит/(Пиксели*Кадры) : 0.125
Размер потока : 2,97 Гбайт (92%)
Язык : English
Default : Да
Forced : Нет
Цветовой диапазон : Limited
Основные цвета : BT.709
Характеристики трансфера : BT.709
Коэффициенты матрицы : BT.709

Аудио
Идентификатор : 2
Формат : AC-3
Формат/Информация : Audio Coding 3
Расширение режима : CM (complete main)
Параметр Endianness формата : Big
Идентификатор кодека : A_AC3
Продолжительность : 1 ч. 32 м.
Вид битрейта : Постоянный
Битрейт : 384 Кбит/сек
Каналы : 6 каналов
Расположение каналов : Front: L C R, Side: L R, LFE
Частота : 48,0 КГц
Частота кадров : 31,250 кадров/сек (1536 spf)
Метод сжатия : С потерями
Размер потока : 254 Мбайт (8%)
Язык : Russian
Default : Да
Forced : Нет

Меню
00:00:00.000 : en:Глава 1
00:07:04.166 : en:Глава 2
00:15:03.124 : en:Глава 3
00:22:33.832 : en:Глава 4
00:31:41.248 : en:Глава 5
00:39:43.998 : en:Глава 6
00:47:15.498 : en:Глава 7
00:55:33.206 : en:Глава 8
01:04:41.372 : en:Глава 9
01:14:20.538 : en:Глава 10
01:22:05.579 : en:Глава 11

pb.wtf



Скачать Отступник через торрент http://img12.lostpic.net/2017/12/27/45daf45ab1f5d9a0a3a9b1e9023fcd28.png Скачать фильм Отступник через торрент бесплантно в хорошем качестве Описание: Страхи прошлого неотступно преследует Малкольма: ещё ребёнком герой Орландо Блума получил сильнейшую психологическую травму. ... 10 10 4
Торрент: Зарегистрирован [2017-12-27 22:03] · скачан: 317 раз
Статус: √ проверено
Размер: 3.22 GB
Как cкачать? Как скачать Отступник через торрент | qTorrent

% Раздел Тема Автор DL S | L
Фильмы 2017 [DVDrip, WEB-DLRip, HDrip] (DUB, MVO) [ 709 MB ] Отступник / Romans [2017 WEB-DLRip многоголосый закадровый ""] coc900 Скачать
1 | 0
Фильмы 2017 [DVDrip, WEB-DLRip, HDrip] (DUB, MVO) [ 1.35 GB ] Отступник / Romans [2017 WEB-DLRip-AVC] MVO sokol_ok Скачать
2 | 0
Фильмы (WEB-DL 720p, 1080p) [ 2.9 GB ] Отступник / Romans [2017 WEB-DL 720p] MVO bober100 Скачать
1 | 0
Фильмы 2017 [DVDrip, WEB-DLRip, HDrip] (DUB, MVO) [ 1.37 GB ] Отступник / Romans [2017 WEB-DLRip] MVO bober100 Скачать
1 | 0

28-11-2019 20:33  

Отключить всю рекламу на сайте

    Дорогой пользователь! Огромная просьба, поблагодарите релизера, оцените раздачу и оставьте свои комментарий, если Вы скачали Отступник через торрент бесплатно! Внесите свою лепту в развитие PiratBit!
    Комментировать посты могут только пользователи прошедшие не сложную регистрацию
    Показать сообщения:    

    Отступник через торрент
    Скачать бесплатно Отступник
    Отступник скачать торрент
    Отступник смотреть онлайн
    Cкачать фильм Отступник бесплатно
    Отступник скачать торрент в хорошем качестве
    Отступник смотреть онлайн бесплатно в хорошем качестве


    Вы не можете начинать темы
    Вы не можете отвечать на сообщения
    Вы не можете редактировать свои сообщения
    Вы не можете удалять свои сообщения
    Вы не можете голосовать в опросах
    Вы не можете прикреплять файлы к сообщениям
    Вы можете скачивать файлы