Ссылка на приватное зеркало нашего сайта всего за 1$. Внимание количество ограничено!!!

2 сезон

iTunes

1 сезон

1

iTunes

iTunes

iTunes

1 сезон

RePack

30

ИГРА 18+

pack

ВАЖНО

!!Акция!!

Alien_RageХит недели

RePack

MK11
pack

Забери бонус

RePack

jed

!!Акция!!

Alien_Rage

RePack

fifa19

RePack

Assassins Creed: Odyssey

RePack

NEED FOR SPEED™ PAYBACK

4 сезон

9 сезон

Бесстыжие 9 сезон

Все сериалы

все сериалы на PB.wtf

RePack

FAR CRY 5
  

Мишель Вальян: Жажда скорости / Michel Vaillant (Луи-Паскаль Кувелер) [2003, спорт, триллер, BDRip 1080p by msltel] DUB, VO (профессиональный) pb.wtf

Мишель Вальян: Жажда скорости через торрент pb.wtf

Размер: 10.47 GB | Добавлен: 2 года 10 мес. назад | Торрент скачан:37 раз
Скачать  

28-12-2017 07:05 Мишель Вальян: Жажда скорости Скачать торрент  

Название: Мишель Вальян: Жажда скорости
Оригинальное название: Michel Vaillant
Год выпуска: 2003
Страна: Франция
Жанр: спорт, триллер
Продолжительность: 01:43:27
Перевод: дублированный, профессиональный одноголосый

Режиссер: Луи-Паскаль Кувелер
В ролях: Сагамор Стевенен, Питер Янгблад Хиллз, Дайан Крюгер, Жан-Пьер Кассель, Беатрис Аженен, Филипп Бас, Филипп Леллуш, Лиза Барбуша, Джинн Моран, Франсуа Леванталь

О фильме: Главный герой фильма — бесстрашный и виртуозный автогонщик Мишель Вальян — многократный победитель крупнейших авторалли мира. Победам и успехам его команды восторженно рукоплещет публика, ему завидуют побеждённые соперники. На сложнейшей трассе этой супер-гонки их ждёт бескомпромиссная и жестокая борьба не за первое место, а за жизнь, когда коварство соперников не знает границ... Фильм основан на реальной гонке «24 часа Ле-Мана».



Качество: BDRip 1080p
Формат: MKV
Видео: MPEG-4 AVC, 11.1 Mбит/с, 1920x814
Аудио 1: русский, AC3, 384 kbps, 6 ch, 48 kHz [дублированный, R5]
Аудио 2: русский, DTS, 1509 kbps, 6 ch, 48 kHz [профессиональный одноголосый, Александр Дасевич]
Аудио 3: французский, DTS, 1509 kbps, 6 ch, 48 kHz [оригинал]
Субтитры 1: русские
Субтитры 2: английские
Неименованные главы/чаптеры.
Общее
Уникальный идентификатор : 186708907754588000761576093453129136341 (0x8C76D3DFBEEAD766B80E7967F374B8D5)
Полное имя : D:\Video\Мишель Вальян.2003.BDRip.1080p by msltel.mkv
Формат : Matroska
Версия формата : Version 4 / Version 2
Размер файла : 10,5 Гбайт
Продолжительность : 1 ч. 43 м.
Общий поток : 14,5 Мбит/сек
Название фильма : Rip by msltel
Дата кодирования : UTC 2017-12-27 14:23:26
Программа кодирования : mkvmerge v8.2.0 ('World of Adventure') 64bit
Библиотека кодирования : libebml v1.3.1 + libmatroska v1.4.2

Видео
Идентификатор : 1
Формат : AVC
Формат/Информация : Advanced Video Codec
Профиль формата : High@L4.1
Настройки формата : CABAC / 4 Ref Frames
Параметр CABAC формата : Да
Параметр RefFrames формата : 4 кадра
Идентификатор кодека : V_MPEG4/ISO/AVC
Продолжительность : 1 ч. 43 м.
Битрейт : 11,1 Мбит/сек
Ширина : 1920 пикселей
Высота : 814 пикселей
Соотношение сторон : 2,35:1
Режим частоты кадров : Постоянный
Частота кадров : 23,976 (24000/1001) кадра/сек
Цветовое пространство : YUV
Субдискретизация насыщенности : 4:2:0
Битовая глубина : 8 бит
Тип развёртки : Прогрессивная
Бит/(Пиксели*Кадры) : 0.296
Размер потока : 8,00 Гбайт (76%)
Библиотека кодирования : x264 core 146 r2538 121396c
Настройки программы : cabac=1 / ref=4 / deblock=1:-3:-2 / analyse=0x3:0x113 / me=umh / subme=11 / psy=1 / psy_rd=1.00:0.15 / mixed_ref=1 / me_range=32 / chroma_me=1 / trellis=2 / 8x8dct=1 / cqm=0 / deadzone=21,11 / fast_pskip=0 / chroma_qp_offset=-3 / threads=6 / lookahead_threads=1 / sliced_threads=0 / nr=0 / decimate=1 / interlaced=0 / bluray_compat=0 / constrained_intra=0 / bframes=6 / b_pyramid=2 / b_adapt=2 / b_bias=0 / direct=1 / weightb=1 / open_gop=0 / weightp=2 / keyint=230 / keyint_min=23 / scenecut=40 / intra_refresh=0 / rc_lookahead=40 / rc=crf / mbtree=0 / crf=18.8 / qcomp=0.60 / qpmin=0 / qpmax=69 / qpstep=4 / vbv_maxrate=62500 / vbv_bufsize=78125 / crf_max=0.0 / nal_hrd=none / filler=0 / ip_ratio=1.40 / pb_ratio=1.30 / aq=1:1.00
Язык : French
Default : Да
Forced : Нет

Аудио #1
Идентификатор : 2
Формат : AC-3
Формат/Информация : Audio Coding 3
Идентификатор кодека : A_AC3
Продолжительность : 1 ч. 43 м.
Вид битрейта : Постоянный
Битрейт : 384 Кбит/сек
Каналы : 6 каналов
Расположение каналов : Front: L C R, Side: L R, LFE
Частота : 48,0 КГц
Частота кадров : 31,250 кадров/сек (1536 SPF)
Битовая глубина : 16 бит
Метод сжатия : С потерями
Размер потока : 284 Мбайт (3%)
Заголовок : DUB.R5
Язык : Russian
ServiceKind/String : Complete Main
Default : Да
Forced : Нет

Аудио #2
Идентификатор : 3
Формат : DTS
Формат/Информация : Digital Theater Systems
Идентификатор кодека : A_DTS
Продолжительность : 1 ч. 43 м.
Вид битрейта : Постоянный
Битрейт : 1509 Кбит/сек
Каналы : 6 каналов
Расположение каналов : Front: L C R, Side: L R, LFE
Частота : 48,0 КГц
Частота кадров : 93,750 кадра/сек (512 SPF)
Битовая глубина : 16 бит
Метод сжатия : С потерями
Размер потока : 1,09 Гбайт (10%)
Заголовок : Александр Дасевич
Язык : Russian
Default : Нет
Forced : Нет

Аудио #3
Идентификатор : 4
Формат : DTS
Формат/Информация : Digital Theater Systems
Идентификатор кодека : A_DTS
Продолжительность : 1 ч. 43 м.
Вид битрейта : Постоянный
Битрейт : 1509 Кбит/сек
Каналы : 6 каналов
Расположение каналов : Front: L C R, Side: L R, LFE
Частота : 48,0 КГц
Частота кадров : 93,750 кадра/сек (512 SPF)
Битовая глубина : 16 бит
Метод сжатия : С потерями
Размер потока : 1,09 Гбайт (10%)
Заголовок : original
Язык : French
Default : Нет
Forced : Нет

Текст #1
Идентификатор : 5
Формат : UTF-8
Идентификатор кодека : S_TEXT/UTF8
Идентификатор кодека/Информация : UTF-8 Plain Text
Продолжительность : 1 ч. 35 м.
Битрейт : 74 бит/сек
ElementCount : 1106
Размер потока : 52,4 Кбайт (0%)
Заголовок : русские
Язык : Russian
Default : Нет
Forced : Нет

Текст #2
Идентификатор : 6
Формат : UTF-8
Идентификатор кодека : S_TEXT/UTF8
Идентификатор кодека/Информация : UTF-8 Plain Text
Продолжительность : 1 ч. 35 м.
Битрейт : 32 бит/сек
ElementCount : 932
Размер потока : 22,9 Кбайт (0%)
Заголовок : ангийские
Язык : English
Default : Нет
Forced : Нет

Меню
00:00:00.000 : :Chapter 01
00:04:25.890 : :Chapter 02
00:16:20.771 : :Chapter 03
00:24:57.369 : :Chapter 04
00:33:15.326 : :Chapter 05
00:43:12.047 : :Chapter 06
00:48:50.677 : :Chapter 07
00:56:27.383 : :Chapter 08
01:05:13.659 : :Chapter 09
01:16:21.701 : :Chapter 10
01:24:55.548 : :Chapter 11
01:30:07.360 : :Chapter 12
pb.wtf



Скачать Мишель Вальян: Жажда скорости через торрент https://a.radikal.ru/a28/1712/e3/f054931cef98.jpg Скачать фильм Мишель Вальян: Жажда скорости через торрент бесплантно в хорошем качестве О фильме: Главный герой фильма — бесстрашный и виртуозный автогонщик Мишель Вальян — многократный победитель крупнейших авторалли мира. ... 5 10 1
Info! Золотая раздача, скачанное не засчитывается.
Торрент: Зарегистрирован [2017-12-28 07:05] · скачан: 37 раз
Статус: √ проверено
Размер: 10.47 GB
Как cкачать? Как скачать Мишель Вальян: Жажда скорости через торрент | qTorrent

% Раздел Тема Автор DL S | L
Фильмы [HD 720p, 1080p] (Хороший звук DUB, MVO) [ 4.08 GB ] Мишель Вальян: Жажда скорости / Michel Vaillant [2003 BDRip 720p by msltel] DUB VO msltel Скачать
1 | 0
Фильмы 2001-2005 [ 1.35 GB ] Мишель Вальян: Жажда скорости / Michel Vaillant [2003 HDRip] кэп Скачать
1 | 0
Фильмы [HD 720p, 1080p] (Хороший звук DUB, MVO) [ 7.94 GB ] Мишель Вальян: Жажда скорости / Michel Vaillant [2003 BDRip 1080p ] Бумер Скачать
1 | 0

28-11-2019 20:33  

Отключить всю рекламу на сайте

    Дорогой пользователь! Огромная просьба, поблагодарите релизера, оцените раздачу и оставьте свои комментарий, если Вы скачали Мишель Вальян: Жажда скорости через торрент бесплатно! Внесите свою лепту в развитие PiratBit!
    Комментировать посты могут только пользователи прошедшие не сложную регистрацию
    Показать сообщения:    

    Мишель Вальян: Жажда скорости через торрент
    Скачать бесплатно Мишель Вальян: Жажда скорости
    Мишель Вальян: Жажда скорости скачать торрент
    Мишель Вальян: Жажда скорости смотреть онлайн
    Cкачать фильм Мишель Вальян: Жажда скорости бесплатно
    Мишель Вальян: Жажда скорости скачать торрент в хорошем качестве
    Мишель Вальян: Жажда скорости смотреть онлайн бесплатно в хорошем качестве


    Вы не можете начинать темы
    Вы не можете отвечать на сообщения
    Вы не можете редактировать свои сообщения
    Вы не можете удалять свои сообщения
    Вы не можете голосовать в опросах
    Вы не можете прикреплять файлы к сообщениям
    Вы можете скачивать файлы