Ссылка на приватное зеркало всего за 1$. Внимание количество ограничено!!!

OK

1+1

iTunes

мы

OK

1

WEB-DLRip

Джокер

Пифагор

Ведьмак / The Witcher сериал

Лицензия

ПШазам

ОК

Оно 2

iTunes

30
pack

Вам бонус

ВАЖНО

!!Акция!!

Alien_RageХит недели

RePack

Resident Evil 21

ИГРА 18+

pack

RePack

jed

RePack

fifa19

RePack

Assassins Creed: Odyssey

RePack

NEED FOR SPEED™ PAYBACK

4 сезон

9 сезон

Бесстыжие 9 сезон

Все сериалы

все сериалы на PB.wtf

RePack

FAR CRY 5
  

Алиса - Темные времена / Alice: The Darkest Hour (Майкл Эффенберге) [2017, триллер, детектив, BDRip 720p] MVO ["Синема УС"] pb.wtf

Алиса - Темные времена через торрент pb.wtf

Размер: 3.98 GB | Добавлен: 2 года назад | Торрент скачан:140 раз
Скачать  

28-12-2017 07:48 Алиса - Темные времена Скачать торрент  

Алиса - Темные времена / Alice: The Darkest HourГод выпуска: 2017
Страна: Германия
Жанр: триллер, детектив
Продолжительность: 01:38:56
Перевод: Любительский (многоголосый) ["Синема УС"]
Субтитры: отсутствуют

Режиссер: Майкл Эффенберге

rating

В ролях:

Клод-Оливер Рудольф, Свен Мартинек, Ева Махль, Каролина Хоффманн, Анушка Ренци, Питер Бош, Хельмут Краусс

Описание:

По всей Европе происходят таинственные убийства девушек. Жертв связывает одна особенность - все они сироты и носят имя Алиса. Занимающийся делом частный детектив выходит на студентку Алису, у которой после смерти родителей остался один лишь дедушка. Девушка живет в мире своих фантазий и выпадает из реальности, так ей проще справляться с болью утраты. Но однажды она получает приглашение на странную вечеринку, где узнает, что граница между реальностью и снами на самом деле очень тонка...

Качество: BDRip 720p
Формат: MKV
Видео кодек: H.264
Аудио кодек: AC3

Видео: 5303 Кбит/с, 1280x720
Аудио#1: AC3, 2 ch, 448 Кбит/с

скриншот   скриншот   скриншот  

Общее
Уникальный идентификатор : 226492378924187054861252257127982296022 (0xAA64D871054D80DA92749120E585EBD6)
Полное имя : D:\Alice.the.darkest.hour.2017.P.BDRip.72Op_KOSHARA.mkv
Формат : Matroska
Версия формата : Version 2
Размер файла : 3,98 Гбайт
Продолжительность : 1 ч. 38 м.
Режим общего битрейта : Переменный
Общий поток : 5753 Кбит/сек
Дата кодирования : UTC 2017-12-26 15:14:55
Программа кодирования : mkvmerge v8.3.0 ('Over the Horizon') 64bit
Библиотека кодирования : libebml v1.3.1 + libmatroska v1.4.2

Видео
Идентификатор : 1
Формат : AVC
Формат/Информация : Advanced Video Codec
Профиль формата : High@L4.1
Параметр CABAC формата : Да
Параметр ReFrames формата : 9 кадров
Идентификатор кодека : V_MPEG4/ISO/AVC
Продолжительность : 1 ч. 38 м.
Вид битрейта : Переменный
Битрейт : 5303 Кбит/сек
Максимальный битрейт : 6000 Кбит/сек
Ширина : 1280 пикселей
Высота : 720 пикселей
Соотношение сторон : 16:9
Режим частоты кадров : Постоянный
Частота кадров : 23,976 (24000/1001) кадра/сек
Стандарт вещания : Component
Цветовое пространство : YUV
Субдискретизация насыщенности : 4:2:0
Битовая глубина : 8 бит
Тип развёртки : Прогрессивная
Бит/(Пиксели*Кадры) : 0.235
Размер потока : 3,59 Гбайт (90%)
Default : Да
Forced : Нет
Цветовой диапазон : Limited
Основные цвета : BT.709
Характеристики трансфера : BT.709
Коэффициенты матрицы : BT.709

Аудио
Идентификатор : 2
Формат : AC-3
Формат/Информация : Audio Coding 3
Расширение режима : CM (complete main)
Параметр Endianness формата : Big
Идентификатор кодека : A_AC3
Продолжительность : 1 ч. 38 м.
Вид битрейта : Постоянный
Битрейт : 448 Кбит/сек
Каналы : 2 канала
Расположение каналов : Front: L R
Частота : 48,0 КГц
Частота кадров : 31,250 кадров/сек (1536 spf)
Метод сжатия : С потерями
Размер потока : 317 Мбайт (8%)
Default : Да
Forced : Нет

pb.wtf



Скачать Алиса - Темные времена через торрент https://c.radikal.ru/c01/1712/a1/bb00eec19071.jpg Скачать фильм Алиса - Темные времена через торрент бесплантно в хорошем качестве Описание: По всей Европе происходят таинственные убийства девушек. Жертв связывает одна особенность - все они сироты и носят имя Алиса. ... 10 10 4
Торрент: Зарегистрирован [2017-12-28 07:48] · скачан: 140 раз
Статус: T временная
Размер: 3.98 GB
Как cкачать? Как скачать Алиса - Темные времена через торрент | qTorrent

% Раздел Тема Автор DL S | L
T Фильмы (мультфильмы) cо спонсором показа (Новинки AVI/MKV) [ 1.37 GB ] Алиса - Темные времена / Alice: The Darkest Hour [2017 HDRip] MVO ["Синема УС"] bober100 Скачать
1 | 0

28-11-2019 20:33  

Отключить всю рекламу на сайте

    Дорогой пользователь! Огромная просьба, поблагодарите релизера, оцените раздачу и оставьте свои комментарий, если Вы скачали Алиса - Темные времена через торрент бесплатно! Внесите свою лепту в развитие PiratBit!
    Комментировать посты могут только пользователи прошедшие не сложную регистрацию
    Показать сообщения:    

    Алиса - Темные времена через торрент
    Скачать бесплатно Алиса - Темные времена
    Алиса - Темные времена скачать торрент
    Алиса - Темные времена смотреть онлайн
    Cкачать фильм Алиса - Темные времена бесплатно
    Алиса - Темные времена скачать торрент в хорошем качестве
    Алиса - Темные времена смотреть онлайн бесплатно в хорошем качестве


    Вы не можете начинать темы
    Вы не можете отвечать на сообщения
    Вы не можете редактировать свои сообщения
    Вы не можете удалять свои сообщения
    Вы не можете голосовать в опросах
    Вы не можете прикреплять файлы к сообщениям
    Вы можете скачивать файлы