Всегда рабочее зеркало без VPN и Proxy просто перед .vidak.icu напиши любое слово или цифру, Пример http://mxnq.vidak.icu

MVO

Лицензия

1 сезон

1

1 сезон

iTunes

1 сезон

13

1 сезон

Deluxe

pack

Рекомендуем

Repack

30

ВАЖНО

RePack

MK11

RePack

jed

RePack

fifa19

RePack

RDR2

RePack

NEED FOR SPEED™ PAYBACK

Кинопоиск HD

6 сезон

 Острые козырьки 6 сезон

Все сериалы

все сериалы на PB.wtf

RePack

FAR CRY 5
  
Magnet ссылка

Убийца / Sicario (Дени Вильнёв) [2015, Боевик, триллер, драма, криминал, детектив, UHD BD Remux 2160p] 4xAVO+DUB [iTunes] pb.wtf

Убийца через торрент pb.wtf

Размер: 60.84 GB | Добавлен: 4 года 6 мес. назад | Торрент скачан:67 раз
Смотреть онлайн Убийца | Скачать    Ребята, помогите собрать деньги на оплату серверов!!!

28-12-2017 16:05 Убийца Скачать торрент  

Убийца / SicarioГод выпуска: 2015
Страна: США
Жанр: Боевик, триллер, драма, криминал, детектив
Продолжительность: 02:01:20
Перевод:

#1: Дублированный | iTunes
#2: Авторский | Живов
#3: Авторский | Немахов
#4: Авторский | Есарев
#5: Авторский | Матвеев

Субтитры: Русские (forced, full), английские

Режиссер: Дени Вильнёв

rating

В ролях:

Эмили Блант, Бенисио Дель Торо, Джош Бролин, Виктор Гарбер, Джон Бернтал, Дэниэл Калуя, Джеффри Донован, Рауль Трухильо, Хулио Седильо, Хэнк Роджерсон, Бернардо Галлегос, Максимилиано Эрнандес, Кевин Уиггинс, Эдгар Арреола, Ким Нив, Хесус Неварес-Кастилло, Дилан Кенин, Джон Трехо, Марти Линдси, Алекс Найт

Описание:

Кейт Мэйсер — агент ФБР, работающая в приграничных районах и старающаяся придерживаться собственных идеалов. Она много сил отдает работе и борьбе с наркотрафиком, хотя и понимает, что исход этой войны складывается явно не в пользу представителей закона. Однажды ей выпадает шанс принять участие в работе элитного отряда по борьбе с наркотиками, который возглавляет агент Мэтт Грайвер, и Кейт не упускает его. Однако она и представить себе не могла, с чем ей предстоит столкнуться в ходе этой рискованной операции. Впереди ее ждет очень серьезное испытание, в котором главной задачей будет — остаться в живых...

Качество: UHD BD Remux 2160p
Формат: MKV
Видео кодек: HEVC
Аудио кодек: AC3/DTS

Видео: MPEG-H HEVC HDR Video, 3840x2160, 56.5 Mbit/s, 23.976 fps
Аудио#1: 48 kHz, AC3, 5.1, 384 Kbps | Дублированный | iTunes | RUS |
Аудио#2: 48 kHz, AC3, 5.1, 640 Kbps | Авторский | RUS |
Аудио#3: 48 kHz, AC3, 5.1, 448 Kbps | Авторский | RUS |
Аудио#4: 48 kHz, DTS-HD MA, 7.1, 4503 Kbps | Авторский | RUS |
Аудио#5: 48 kHz, DTS-HD MA, 7.1, 4524 Kbps | Авторский | RUS |
Аудио#6: 48 kHz, TrueHD, 7.1, 4084 Kbps | Оригинал | ENG |
Аудио#7: 48 kHz, AC3, 5.1, 640 Kbps | Оригинал | ENG |


Релиз от:
скриншот  скриншот  скриншот  скриншот  скриншот  

General
Unique ID : 238253439827319558192077623464686016311 (0xB33DF1836D5C1CC12E5E097CE1985737)
Complete name : G:VideoSSDSicario.2015.UHD.BDREMUX.2160p.4K.UltraHD.HEVC.HDR.ExKinoRay.mkv
Format : Matroska
Format version : Version 4 / Version 2
File size : 60.8 GiB
Duration : 2 h 1 min
Overall bit rate mode : Variable
Overall bit rate : 71.8 Mb/s
Movie name : Sicario 2015 from ExKinoRay
Encoded date : UTC 2017-12-28 15:02:06
Writing application : mkvmerge v19.0.0 ('Brave Captain') 64-bit
Writing library : libebml v1.3.5 + libmatroska v1.4.8

Video
ID : 1
Format : HEVC
Format/Info : High Efficiency Video Coding
Format profile : Main [email protected]@High
Codec ID : V_MPEGH/ISO/HEVC
Duration : 2 h 1 min
Bit rate : 56.5 Mb/s
Width : 3 840 pixels
Height : 2 160 pixels
Display aspect ratio : 16:9
Frame rate mode : Constant
Frame rate : 23.976 (24000/1001) FPS
Color space : YUV
Chroma subsampling : 4:2:0 (Type 2)
Bit depth : 10 bits
Bits/(Pixel*Frame) : 0.284
Stream size : 47.9 GiB (79%)
Writing library : ATEME Titan KFE 3.7.3 (4.7.3.1003)
Language : English
Default : Yes
Forced : No
Color range : Limited
Color primaries : BT.2020
Transfer characteristics : PQ
Matrix coefficients : BT.2020 non-constant
Mastering display color pri : R: x=0.680000 y=0.320000, G: x=0.265000 y=0.690000, B: x=0.150000 y=0.060000, White point: x=0.312700 y=0.329000
Mastering display luminance : min: 0.0050 cd/m2, max: 4000.0000 cd/m2

Audio #1
ID : 2
Format : AC-3
Format/Info : Audio Coding 3
Codec ID : A_AC3
Duration : 2 h 1 min
Bit rate mode : Constant
Bit rate : 384 kb/s
Channel(s) : 6 channels
Channel positions : Front: L C R, Side: L R, LFE
Sampling rate : 48.0 kHz
Frame rate : 31.250 FPS (1536 SPF)
Bit depth : 16 bits
Compression mode : Lossy
Stream size : 333 MiB (1%)
Title : Dub
Language : Russian
Service kind : Complete Main
Default : Yes
Forced : No

Audio #2
ID : 3
Format : AC-3
Format/Info : Audio Coding 3
Codec ID : A_AC3
Duration : 2 h 1 min
Bit rate mode : Constant
Bit rate : 640 kb/s
Channel(s) : 6 channels
Channel positions : Front: L C R, Side: L R, LFE
Sampling rate : 48.0 kHz
Frame rate : 31.250 FPS (1536 SPF)
Bit depth : 16 bits
Compression mode : Lossy
Stream size : 555 MiB (1%)
Title : AVO [Givov]
Language : Russian
Service kind : Complete Main
Default : No
Forced : No

Audio #3
ID : 4
Format : AC-3
Format/Info : Audio Coding 3
Codec ID : A_AC3
Duration : 2 h 1 min
Bit rate mode : Constant
Bit rate : 448 kb/s
Channel(s) : 6 channels
Channel positions : Front: L C R, Side: L R, LFE
Sampling rate : 48.0 kHz
Frame rate : 31.250 FPS (1536 SPF)
Bit depth : 16 bits
Compression mode : Lossy
Stream size : 389 MiB (1%)
Title : AVO [Nemahov]
Language : Russian
Service kind : Complete Main
Default : No
Forced : No

Audio #4
ID : 5
Format : DTS
Format/Info : Digital Theater Systems
Format profile : MA / Core
Codec ID : A_DTS
Duration : 2 h 1 min
Bit rate mode : Variable / Constant
Bit rate : 4 503 kb/s / 1 509 kb/s
Channel(s) : 8 channels / 6 channels
Channel positions : Front: L C R, Side: L R, Back: L R, LFE / Front: L C R, Side: L R, LFE
Sampling rate : 48.0 kHz
Frame rate : 93.750 FPS (512 SPF)
Bit depth : 24 bits
Compression mode : Lossless / Lossy
Stream size : 3.82 GiB (6%)
Title : AVO [Yesarev]
Language : Russian
Default : No
Forced : No

Audio #5
ID : 6
Format : DTS
Format/Info : Digital Theater Systems
Format profile : MA / Core
Codec ID : A_DTS
Duration : 2 h 1 min
Bit rate mode : Variable / Constant
Bit rate : 4 524 kb/s / 1 509 kb/s
Channel(s) : 8 channels / 6 channels
Channel positions : Front: L C R, Side: L R, Back: L R, LFE / Front: L C R, Side: L R, LFE
Sampling rate : 48.0 kHz
Frame rate : 93.750 FPS (512 SPF)
Bit depth : 24 bits
Compression mode : Lossless / Lossy
Stream size : 3.83 GiB (6%)
Title : AVO [Doctor_Joker]
Language : Russian
Default : No
Forced : No

Audio #6
ID : 7
Format : TrueHD
Format profile : TrueHD+Atmos / TrueHD
Codec ID : A_TRUEHD
Duration : 2 h 1 min
Bit rate mode : Variable
Bit rate : 4 084 kb/s
Maximum bit rate : 9 354 kb/s
Channel(s) : Object Based / 8 channels
Channel positions : Object Based / Front: L C R, Side: L R, Back: L R, LFE
Sampling rate : / 48.0 kHz
Frame rate : 1 200.000 FPS (40 SPF)
Compression mode : Lossless
Stream size : 3.46 GiB (6%)
Title : Original
Language : English
Default : No
Forced : No

Audio #7
ID : 8
Format : AC-3
Format/Info : Audio Coding 3
Codec ID : A_AC3
Duration : 2 h 1 min
Bit rate mode : Constant
Bit rate : 640 kb/s
Channel(s) : 6 channels
Channel positions : Front: L C R, Side: L R, LFE
Sampling rate : 48.0 kHz
Frame rate : 31.250 FPS (1536 SPF)
Bit depth : 16 bits
Compression mode : Lossy
Stream size : 555 MiB (1%)
Language : English
Service kind : Complete Main
Default : No
Forced : No

Text #1
ID : 9
Format : UTF-8
Codec ID : S_TEXT/UTF8
Codec ID/Info : UTF-8 Plain Text
Duration : 1 h 42 min
Bit rate : 7 b/s
Count of elements : 85
Stream size : 5.26 KiB (0%)
Title : Forced
Language : Russian
Default : Yes
Forced : No

Text #2
ID : 10
Format : UTF-8
Codec ID : S_TEXT/UTF8
Codec ID/Info : UTF-8 Plain Text
Duration : 1 h 54 min
Bit rate : 61 b/s
Count of elements : 1037
Stream size : 52.1 KiB (0%)
Title : Doctor_Joker
Language : Russian
Default : No
Forced : No

Text #3
ID : 11
Format : UTF-8
Codec ID : S_TEXT/UTF8
Codec ID/Info : UTF-8 Plain Text
Duration : 1 h 55 min
Bit rate : 69 b/s
Count of elements : 1079
Stream size : 58.2 KiB (0%)
Title : VORONIN
Language : Russian
Default : No
Forced : No

Text #4
ID : 12
Format : UTF-8
Codec ID : S_TEXT/UTF8
Codec ID/Info : UTF-8 Plain Text
Duration : 1 h 55 min
Bit rate : 79 b/s
Count of elements : 1278
Stream size : 67.3 KiB (0%)
Title : VORONIN [SDH]
Language : Russian
Default : No
Forced : No

Text #5
ID : 13
Format : UTF-8
Codec ID : S_TEXT/UTF8
Codec ID/Info : UTF-8 Plain Text
Duration : 1 h 50 min
Bit rate : 44 b/s
Count of elements : 1044
Stream size : 35.9 KiB (0%)
Title : Full
Language : English
Default : No
Forced : No

Text #6
ID : 14
Format : UTF-8
Codec ID : S_TEXT/UTF8
Codec ID/Info : UTF-8 Plain Text
Duration : 1 h 53 min
Bit rate : 48 b/s
Count of elements : 1231
Stream size : 40.1 KiB (0%)
Title : SDH
Language : English
Default : No
Forced : No

Menu
00:00:00.000 : en:Chapter 1
00:07:14.350 : en:Chapter 2
00:12:55.107 : en:Chapter 3
00:20:04.369 : en:Chapter 4
00:25:24.814 : en:Chapter 5
00:32:11.596 : en:Chapter 6
00:39:24.820 : en:Chapter 7
00:46:15.314 : en:Chapter 8
00:53:24.576 : en:Chapter 9
01:01:40.321 : en:Chapter 10
01:10:49.119 : en:Chapter 11
01:18:02.886 : en:Chapter 12
01:30:59.370 : en:Chapter 13
01:36:57.770 : en:Chapter 14
01:47:42.038 : en:Chapter 15
01:54:12.804 : en:Chapter 16

pb.wtf



Скачать Убийца через торрент http://img12.lostpic.net/2017/12/28/b1acc3bc3b5f9554134dee0c7db28a9f.jpg Скачать, смотреть онлайн Убийца бесплантно в хорошем качестве Описание: Кейт Мэйсер — агент ФБР, работающая в приграничных районах и старающаяся придерживаться собственных идеалов. Она много сил отдает ... 10 10 4
Торрент: Зарегистрирован [2017-12-28 16:05] · скачан: 67 раз
Статус: √ проверено
Размер: 60.84 GB
Как cкачать? Как скачать Убийца через торрент | UTorrent

% Раздел Тема Автор DL S | L
T Фильмы 2021 [DVDrip, WEB-DLRip, HDrip] (DUB, MVO) [ 1.46 GB ] Американский убийца / American Sicario [2021 BDRip] MVO [IVI] bober100 Скачать
2 | 0
T Фильмы 2021 [DVDrip, WEB-DLRip, HDrip] (DUB, MVO) [ 746 MB ] Американский убийца / American Sicario [2021 BDRip] MVO [IVI] bober100 Скачать
2 | 0
Сборники и Сиквелы (48-60 fps) [ 9.56 GB ] Убийца: Дилогия / Sicario: Dilogy [2015-2018 BDRip - HEVC 1080p 10 bit 60 FPS DUB AVO] dd2d3 Скачать
2 | 2
Фильмы с авторской озвучкой [ 2.18 GB ] Убийца / Sicario [2015 BDRip-AVC] [AVO] killermax2013 Скачать
3 | 0
Ultra HD (UHD: 2K, 4K, 8K) — видео сверхвысокой чёткости [ 70.29 GB ] Убийца / Sicario [2015 UHD BDRemux 2160p] + 5xAVO sheker187 Скачать
1 | 0
Фильмы [HD 720p, 1080p] (Хороший звук DUB, MVO) [ 6.08 GB ] Убийца / Sicario [2015 BDRip 1080p HEVC ] Мичман37 Скачать
1 | 0
Фильмы [HD 720p, 1080p] (Хороший звук DUB, MVO) [ 12.44 GB ] Убийца 2. Против всех / Sicario 2: Soldado [2018 BDRip 1080p] + MVO [HDRezka Studio] + AVO [Д. Есарев] sheker187 Скачать
1 | 0

28-11-2019 20:33  

Отключить всю рекламу на сайте

    Дорогой пользователь! Огромная просьба, поблагодарите релизера, оцените раздачу и оставьте свои комментарий, если Вы скачали Убийца через торрент бесплатно!
    Комментировать посты могут только пользователи прошедшие не сложную регистрацию
    Показать сообщения:    

    Убийца через торрент
    Скачать бесплатно Убийца
    Убийца скачать торрент
    Убийца смотреть онлайн
    Cкачать фильм Убийца бесплатно
    Убийца скачать торрент в хорошем качестве
    Убийца смотреть онлайн бесплатно в хорошем качестве


    Вы не можете начинать темы
    Вы не можете отвечать на сообщения
    Вы не можете редактировать свои сообщения
    Вы не можете удалять свои сообщения
    Вы не можете голосовать в опросах
    Вы не можете прикреплять файлы к сообщениям
    Вы можете скачивать файлы