2 сезон

iTunes

MVO

1

2 сезон

iTunes

iTunes

1 сезон

RePack

30

Новинка

ВАЖНО

ИГРА 18+

pack

RePack

MK11
pack

Легкие деньги

RePack

jed

RePack

fifa19

RePack

RDR2

RePack

NEED FOR SPEED™ PAYBACK

4 сезон

9 сезон

Бесстыжие 9 сезон

Все сериалы

все сериалы на PB.wtf

RePack

FAR CRY 5

Anonymous, добрый вечер, мы не успеваем собрать деньги на оплату серверов за декабрь и январь, помогите нам пожалуйста в это трудное время. В качестве благодарности мы отключим Вам всю рекламу на сайте (укажите свой ник в строку Ваше имя)!

×
  
Magnet ссылка

Отступник / Romans (Людвиг Шаммасян, Пол Шаммасян) [2017 г., драма, WEB-DLRip, Профессиональный многоголосый закадровый "iTunes"] pb.wtf

Отступник через торрент pb.wtf

Размер: 709 MB | Добавлен: 3 года назад | Торрент скачан:131 раз
Скачать  

28-12-2017 18:08 Отступник Скачать торрент  

Отступник / Romans
Год выпуска: 2017
Страна: Великобритания / Dreamscape, Tea Shop & Film Company, Worldwide Entertainment Group (WEG)
Жанр: драма
Продолжительность: 01:32:19
Перевод: Профессиональный многоголосый закадровый (iTunes)

Режиссер: Людвиг Шаммасян, Пол Шаммасян

rating

В ролях: Орландо Блум, Джанет Монтгомери, Чарли Крид-Майлз, Энн Рейд, Джош Майерс, Дебора Рок, Алекс Фернс, Джо Уитли, Кайл Риис, Джеймс Смилли

Описание: Страхи прошлого неотступно преследует Малкольма: ещё ребёнком герой Орландо Блума получил сильнейшую психологическую травму. Больше двадцати лет гремучая смесь из терзаемых противоречий, оскорбления, непонимания, разочарования и отсутствия веры в Бога овладевают героем. Побороть себя и отпустить прошлое, не смотря на всепоглощающую жажду мести, не просто, но именно это предстоит пережить зрителям на равне с главным героем.

Качество: WEB-DLRip
Формат: AVI
Видео кодек: XviD
Аудио кодек: MP3
Видео: 640x272 (2.35:1), 24.000 fps, XviD build 50 ~936 kbps avg, 0.22 bit/pixel
Аудио: 48 kHz, MPEG Layer 3, 2 ch, ~128.00 kbps avg
скриншот   скриншот   скриншот   скриншот  

Общее
Полное имя : F:\ФИЛЬМЫ\Отступник.2017.WEB-DLRip.avi
Формат : AVI
Формат/Информация : Audio Video Interleave
Размер файла : 709 Мбайт
Продолжительность : 1 ч. 32 м.
Общий поток : 1074 Кбит/сек
Программа кодирования : VirtualDubMod 1.5.10.3 | www.virtualdub-fr.org || (build 2550/release)
Библиотека кодирования : VirtualDubMod build 2550/release

Видео
Идентификатор : 0
Формат : MPEG-4 Visual
Профиль формата : Advanced Simple@L5
Настройки формата : BVOP1
Параметр BVOP формата : 1
Параметр QPel формата : Нет
Параметр GMC формата : Без точки перехода
Параметр матрицы формата : Default (MPEG)
Идентификатор кодека : XVID
Идентификатор кодека/Подсказка : XviD
Продолжительность : 1 ч. 32 м.
Битрейт : 937 Кбит/сек
Ширина : 640 пикселей
Высота : 272 пикселя
Соотношение сторон : 2,35:1
Частота кадров : 24,000 кадра/сек
Цветовое пространство : YUV
Субдискретизация насыщенности : 4:2:0
Битовая глубина : 8 бит
Тип развёртки : Прогрессивная
Метод сжатия : С потерями
Бит/(Пиксели*Кадры) : 0.224
Размер потока : 619 Мбайт (87%)
Библиотека кодирования : XviD 1.2.1 (UTC 2008-12-04)

Аудио
Идентификатор : 1
Формат : MPEG Audio
Версия формата : Version 1
Профиль формата : Layer 3
Настройки формата : Joint stereo / MS Stereo
Идентификатор кодека : 55
Идентификатор кодека/Подсказка : MP3
Продолжительность : 1 ч. 32 м.
Вид битрейта : Постоянный
Битрейт : 128 Кбит/сек
Каналы : 2 канала
Частота : 48,0 КГц
Частота кадров : 41,667 кадра/сек (1152 SPF)
Метод сжатия : С потерями
Размер потока : 84,5 Мбайт (12%)
Выравнивание : Соединение по промежуткам
Продолжительность промежутка : 42 мс. (1,00 видеокадр)
Время предзагрузки промежутка : 504 мс.
Библиотека кодирования : LAME3.99r
Настройки программы : -m j -V 4 -q 2 -lowpass 17 -b 128

pb.wtf



Скачать Отступник через торрент http://pic1.kartinco.top/images/11/6nmdd.jpg Скачать фильм Отступник через торрент бесплантно в хорошем качестве Описание: Страхи прошлого неотступно преследует Малкольма: ещё ребёнком герой Орландо Блума получил сильнейшую психологическую травму. ... 10 10 5
Торрент: Зарегистрирован [2017-12-28 18:08] · скачан: 131 раз
Статус: √ проверено
Размер: 709 MB
Как cкачать? Как скачать Отступник через торрент | UTorrent

% Раздел Тема Автор DL S | L
Фильмы 2017 [DVDrip, WEB-DLRip, HDrip] (DUB, MVO) [ 1.35 GB ] Отступник / Romans [2017 WEB-DLRip-AVC] MVO sokol_ok Скачать
2 | 0
Фильмы (WEB-DL 720p, 1080p) [ 2.9 GB ] Отступник / Romans [2017 WEB-DL 720p] MVO bober100 Скачать
1 | 0
Фильмы 2017 [DVDrip, WEB-DLRip, HDrip] (DUB, MVO) [ 1.37 GB ] Отступник / Romans [2017 WEB-DLRip] MVO bober100 Скачать
1 | 0
Фильмы (WEB-DL 720p, 1080p) [ 3.22 GB ] Отступник / Romans [2017 WEB-DL 1080p] MVO bober100 Скачать
1 | 0

28-11-2019 20:33  

Отключить всю рекламу на сайте

30-12-2017 19:13 Отступник Скачать торрент  

Полтара часа нуднятины! ОТСТОЙ!!!pb.wtf



    Дорогой пользователь! Огромная просьба, поблагодарите релизера, оцените раздачу и оставьте свои комментарий, если Вы скачали Отступник через торрент бесплатно! Внесите свою лепту в развитие PiratBit!
    Комментировать посты могут только пользователи прошедшие не сложную регистрацию
    Показать сообщения:    

    Отступник через торрент
    Скачать бесплатно Отступник
    Отступник скачать торрент
    Отступник смотреть онлайн
    Cкачать фильм Отступник бесплатно
    Отступник скачать торрент в хорошем качестве
    Отступник смотреть онлайн бесплатно в хорошем качестве


    Вы не можете начинать темы
    Вы не можете отвечать на сообщения
    Вы не можете редактировать свои сообщения
    Вы не можете удалять свои сообщения
    Вы не можете голосовать в опросах
    Вы не можете прикреплять файлы к сообщениям
    Вы можете скачивать файлы