Ссылка на приватное зеркало нашего сайта всего за 1$. Внимание количество ограничено!!!

2 сезон

iTunes

1 сезон

1

2 сезон

2 сезон

iTunes

1 сезон

RePack

30

Новинка

ВАЖНО

ИГРА 18+

pack

RePack

MK11
pack

Забери бонус

RePack

jed

!!Акция!!

Alien_Rage

RePack

fifa19

RePack

Assassins Creed: Odyssey

RePack

NEED FOR SPEED™ PAYBACK

4 сезон

9 сезон

Бесстыжие 9 сезон

Все сериалы

все сериалы на PB.wtf

RePack

FAR CRY 5
  

Битва полов / Battle of the Sexes (Джонатан Дэйтон , Валери Фэрис) [2017 г., драма, комедия, биография, спорт, BDRip 1080p / 60 FPS, Дубляж, Оригинал] pb.wtf

Битва полов через торрент pb.wtf

Размер: 14.94 GB | Добавлен: 2 года 10 мес. назад | Торрент скачан:157 раз
Скачать  

28-12-2017 18:10 Битва полов Скачать торрент  

Битва полов / Battle of the Sexes
Год выпуска: 2017
Страна: Великобритания, США
Жанр: драма, комедия, биография, спорт
Продолжительность: 02:01:39
Перевод: Дубляж, Оригинал
Субтитры: Русские (полные), Английские (полные)

Режиссер: Джонатан Дэйтон , Валери Фэрис

rating

В ролях: Эмма Стоун, Стив Карелл, Андреа Райзборо, Натали Моралес, Сара Силверман, Билл Пуллман, Алан Камминг, Элизабет Шу, Эрик Кристиан Олсен, Фред Армисен, Марта МакАйзек, Лорен Кляйн

Описание: История соперничества между 55-летним чемпионом Уимблдона Бобби Риггсом и 29-летней теннисисткой Билли Джин Кинг. Легендарный матч, прошедший в 1973 году, собрал возле экранов более 50 миллионов американцев и доказал, что профессиональные спортсменки способны на равных состязаться с коллегами-мужчинами.

Качество: BDRip 1080p / 60 FPS by Tiberiumsun69
Формат: MKV
Видео кодек: H.264
Аудио кодек: AC3
Видео: AVC, 1920x804 (2.40:1), 16000 kbps, 59.94 fps, 0.173 bpp
Аудио#1: AC3, 6 ch, 48 kHz, 448 Kbps, 16 bit - DUB
Аудио#2: DTS, 6 ch, 48 kHz, 1509 Kbps, 24 bit - Original

General
Unique ID : 200418552448880625172007404359065927285 (0x96C7358B53982E28932316601BB9FE75)
Complete name : D:\Торренты\Битва полов BDRip 1080p 60fps.mkv
Format : Matroska
Format version : Version 4 / Version 2
File size : 14.9 GiB
Duration : 2 h 1 min
Overall bit rate : 17.6 Mb/s
Movie name : Battle of the Sexes (2017) by Tiberiumsun69
Encoded date : UTC 2017-12-28 17:43:36
Writing application : mkvmerge v18.0.0 ('Apricity') 64-bit
Writing library : libebml v1.3.5 + libmatroska v1.4.8

Video
ID : 1
Format : AVC
Format/Info : Advanced Video Codec
Format profile : High@L4.2
Format settings : CABAC / 4 Ref Frames
Format settings, CABAC : Yes
Format settings, ReFrames : 4 frames
Codec ID : V_MPEG4/ISO/AVC
Duration : 2 h 1 min
Bit rate mode : Constant
Bit rate : 16.0 Mb/s
Width : 1 920 pixels
Height : 804 pixels
Display aspect ratio : 2.40:1
Frame rate mode : Constant
Frame rate : 59.940 (60000/1001) FPS
Standard : NTSC
Color space : YUV
Chroma subsampling : 4:2:0
Bit depth : 8 bits
Scan type : Progressive
Bits/(Pixel*Frame) : 0.173
Stream size : 13.3 GiB (89%)
Language : English
Default : Yes
Forced : No
Color range : Limited
Color primaries : BT.709
Transfer characteristics : BT.709
Matrix coefficients : BT.709

Audio #1
ID : 2
Format : AC-3
Format/Info : Audio Coding 3
Codec ID : A_AC3
Duration : 2 h 1 min
Bit rate mode : Constant
Bit rate : 448 kb/s
Channel(s) : 6 channels
Channel positions : Front: L C R, Side: L R, LFE
Sampling rate : 48.0 kHz
Frame rate : 31.250 FPS (1536 SPF)
Bit depth : 16 bits
Compression mode : Lossy
Stream size : 390 MiB (3%)
Language : Russian
Service kind : Complete Main
Default : Yes
Forced : No

Audio #2
ID : 3
Format : DTS
Format/Info : Digital Theater Systems
Codec ID : A_DTS
Duration : 2 h 1 min
Bit rate mode : Constant
Bit rate : 1 509 kb/s
Channel(s) : 6 channels
Channel positions : Front: L C R, Side: L R, LFE
Sampling rate : 48.0 kHz
Frame rate : 93.750 FPS (512 SPF)
Bit depth : 24 bits
Compression mode : Lossy
Stream size : 1.28 GiB (9%)
Language : English
Default : No
Forced : No

Text #1
ID : 4
Format : UTF-8
Codec ID : S_TEXT/UTF8
Codec ID/Info : UTF-8 Plain Text
Duration : 2 h 0 min
Bit rate : 106 b/s
Count of elements : 1638
Stream size : 94.5 KiB (0%)
Language : Russian
Default : No
Forced : No

Text #2
ID : 5
Format : UTF-8
Codec ID : S_TEXT/UTF8
Codec ID/Info : UTF-8 Plain Text
Duration : 1 h 57 min
Bit rate : 73 b/s
Count of elements : 2070
Stream size : 63.3 KiB (0%)
Language : English
Default : No
Forced : No

Menu
00:00:00.000 : en:00:00:00.000
00:03:34.423 : en:00:03:34.423
00:07:51.304 : en:00:07:51.304
00:10:57.532 : en:00:10:57.532
00:15:13.621 : en:00:15:13.621
00:19:09.523 : en:00:19:09.523
00:22:54.915 : en:00:22:54.915
00:27:57.676 : en:00:27:57.676
00:34:32.946 : en:00:34:32.946
00:38:57.835 : en:00:38:57.835
00:44:57.278 : en:00:44:57.278
00:49:17.079 : en:00:49:17.079
00:54:23.927 : en:00:54:23.927
00:57:54.763 : en:00:57:54.763
01:06:28.276 : en:01:06:28.276
01:15:03.499 : en:01:15:03.499
01:19:37.940 : en:01:19:37.940
01:23:21.914 : en:01:23:21.914
01:30:49.819 : en:01:30:49.819
01:35:11.623 : en:01:35:11.623
01:38:59.142 : en:01:38:59.142
01:43:04.053 : en:01:43:04.053
01:48:47.062 : en:01:48:47.062
01:55:22.749 : en:01:55:22.749

Авторская группа в ВК
pb.wtf



Скачать Битва полов через торрент http://i99.fastpic.ru/big/2017/1224/f8/3a659901b6460d1c1ec9e3b675a650f8.jpg Скачать фильм Битва полов через торрент бесплантно в хорошем качестве Описание: История соперничества между 55-летним чемпионом Уимблдона Бобби Риггсом и 29-летней теннисисткой Билли Джин Кинг. Легендарный ... 8.8 10 8
Info! Золотая раздача, скачанное не засчитывается.
Торрент: Зарегистрирован [2017-12-28 18:10] · скачан: 157 раз
Статус: √ проверено
Размер: 14.94 GB
Как cкачать? Как скачать Битва полов через торрент | qTorrent

% Раздел Тема Автор DL S | L
Фильмы 2017 [DVDrip, WEB-DLRip, HDrip] (DUB, MVO) [ 1.37 GB ] Битва полов / Battle of the Sexes [2017 биография HDRip] [MVO] [] killermax2013 Скачать
2 | 0
Фильмы 2017 [DVDrip, WEB-DLRip, HDrip] (DUB, MVO) [ 3.1 GB ] Битва полов / Battle of the Sexes [2017 биография BDRip-AVC] MVO [] sokol_ok Скачать
4 | 0
Фильмы 2017 [DVDrip, WEB-DLRip, HDrip] (DUB, MVO) [ 1.46 GB ] Битва полов / Battle of the Sexes [2017 биография BDRip] MVO [] Twi7ter Скачать
1 | 0
Фильмы с украинским озвучиванием [ 2.18 GB ] Битва полов / Battle of the Sexes [2017 биография BDRip-AVC] [Ukr DUB] [] killermax2013 Скачать
1 | 0
Фильмы (Blu-ray, BD-Remux, HDDVD) [ 31.52 GB ] Битва полов / Battle of the Sexes [2017 биография BD Remux 1080p] MVO [] bober100 Скачать
1 | 0
Фильмы 2017 [DVDrip, WEB-DLRip, HDrip] (DUB, MVO) [ 1.49 GB ] Битва полов / Battle of the Sexes [2017 биография BDRip-AVC] MVO [] sokol_ok Скачать
2 | 0
Фильмы 2017 [DVDrip, WEB-DLRip, HDrip] (DUB, MVO) [ 2.05 GB ] Битва полов / Battle of the Sexes [2017 биография BDRip] [MVO] [] killermax2013 Скачать
1 | 0


Последний раз редактировалось: Tiberiumsun69 (2018-02-09 08:44), всего редактировалось 4 раз(а)

28-11-2019 20:33  

Отключить всю рекламу на сайте

28-12-2017 18:11 Битва полов Скачать торрент  

Всем доброй ночи и приятного просмотра.)

Скоро новый год.)pb.wtf



27-02-2018 21:56 Битва полов Скачать торрент  

Скажите перевод дубляж или многоголосый?pb.wtf



    Дорогой пользователь! Огромная просьба, поблагодарите релизера, оцените раздачу и оставьте свои комментарий, если Вы скачали Битва полов через торрент бесплатно! Внесите свою лепту в развитие PiratBit!
    Комментировать посты могут только пользователи прошедшие не сложную регистрацию
    Показать сообщения:    

    Битва полов через торрент
    Скачать бесплатно Битва полов
    Битва полов скачать торрент
    Битва полов смотреть онлайн
    Cкачать фильм Битва полов бесплатно
    Битва полов скачать торрент в хорошем качестве
    Битва полов смотреть онлайн бесплатно в хорошем качестве


    Вы не можете начинать темы
    Вы не можете отвечать на сообщения
    Вы не можете редактировать свои сообщения
    Вы не можете удалять свои сообщения
    Вы не можете голосовать в опросах
    Вы не можете прикреплять файлы к сообщениям
    Вы можете скачивать файлы