Ссылка на приватное зеркало нашего сайта всего за 1$. Внимание количество ограничено!!!

2 сезон

iTunes

1 сезон

1

2 сезон

2 сезон

iTunes

1 сезон

RePack

30

Ultimate

ВАЖНО

ИГРА 18+

pack

RePack

MK11
pack

Забери бонус

RePack

jed

!!Акция!!

Alien_Rage

RePack

fifa19

RePack

Assassins Creed: Odyssey

RePack

NEED FOR SPEED™ PAYBACK

4 сезон

9 сезон

Бесстыжие 9 сезон

Все сериалы

все сериалы на PB.wtf

RePack

FAR CRY 5
  

Монстры корпорации / Corporate / Сезон: 1 / Серии 1-10 из 10 (Пэт Бишоп) [2017, США, Комедия, WEB-DLRip 720p] MVO [BaibaKo] pb.wtf

Монстры корпорации через торрент pb.wtf

Размер: 7.05 GB | Добавлен: 2 года 8 мес. назад | Торрент скачан:7 раз
Скачать  

29-12-2017 00:06 Монстры корпорации Скачать торрент  

Монстры корпорации / Corporate


  • Год выпуска: 2017
  • Страна: США
  • Жанр: Комедия
  • Продолжительность: ~ 00:22:00 (Серия)
  • Перевод: Профессиональный многоголосый [BaibaKo]
  • Режиссер: Пэт Бишоп
  • В ролях:
    Мэтт Ингбрэтсон, Джейк Вайсманн, Лэнс Реддик, Адам Ластик, Энн Дудек, Анна Акана, Бэрон Вон, Барбара Грэй и др.



  • Мэтт и Джейк - младшие менеджеры в бездушной многонациональной корпорации, находящиеся во власти тиранического генерального директора Кристиана Девилля и его главных помощников, подхалимов Джона и Кейт.
    Выпутываться из постоянно вращающейся череды катастроф им помогает их единственный союзник - Грэйс из отдела кадров.
  • Рейтинг:

    rating
  • Качество: WEB-DLRip 720p
  • Формат: :MKV
  • Видео кодек: AVC
  • Аудио кодек: AC-3
  • Видео: 4156 Кбит/сек, 1280*720 (16:9), в 23,976 (24000/1001) кадра/сек, AVC
  • Аудио №1: русский 384 Кбит/сек, 48,0 КГц, 16 бит, 2 канала, AC-3 |[BaibaKo]|
  • Аудио №1: английский 384 Кбит/сек, 48,0 КГц, 16 бит, 2 канала, AC-3
  • Релиз от: GEKADOL

    Внимание! Раздача ведётся путём добавления новых серий; при каждом добавлении создаётся новый торрент. Чтобы начать докачку новой серии, пользователям необходимо сделать следующее:
    (1) остановить скачивание,
    (2) удалить старый торрент у себя из клиента (старые серии удалять не надо),
    (3) скачать новый торрент и запустить его у себя в клиенте вместо старого, при этом указать клиенту путь в старую папку куда и должно происходить скачивание новых серий.
    Ваш клиент при этом должен произвести хеширование (проверку) старой папки (если не производит сам - помогите ему сделать это), и будет докачивать только те серии которых у вас ещё нет. Старые серии при этом не удаляются, а продолжают раздаваться!
    Eсли вы уже удалили старые серии, то предотвратить повторную закачку старых серий можно, отжав галочку в соответствующих местах при запуске нового торрента. По возможности, желательно не удалять старые серии как можно дольше чтобы релизёр не столько продолжал раздавать старые серии, а смог сконцентрироваться на новых.
    Общее
    Уникальный идентификатор : 255733938741004370408255278686778345266 (0xC06490A6934E733C274E81CE0AC6C732)
    Полное имя : F:\Монстры корпорации (Corporate)\Corporate.s01e04.HD720p.WEB-DL.Rus.Eng.BaibaKo.tv.mkv
    Формат : Matroska
    Версия формата : Version 4 / Version 2
    Размер файла : 755 Мбайт
    Продолжительность : 21 м. 26 с.
    Общий поток : 4926 Кбит/сек
    Дата кодирования : UTC 2017-12-28 23:43:25
    Программа кодирования : mkvmerge v19.0.0 ('Brave Captain') 64-bit
    Библиотека кодирования : libebml v1.3.5 + libmatroska v1.4.8

    Видео
    Идентификатор : 1
    Формат : AVC
    Формат/Информация : Advanced Video Codec
    Профиль формата : High@L4.1
    Настройки формата : CABAC / 4 Ref Frames
    Параметр CABAC формата : Да
    Параметр RefFrames формата : 4 кадра
    Идентификатор кодека : V_MPEG4/ISO/AVC
    Продолжительность : 21 м. 26 с.
    Битрейт : 4156 Кбит/сек
    Ширина : 1280 пикселей
    Высота : 720 пикселей
    Соотношение сторон : 16:9
    Режим частоты кадров : Постоянный
    Частота кадров : 23,976 (24000/1001) кадра/сек
    Цветовое пространство : YUV
    Субдискретизация насыщенности : 4:2:0
    Битовая глубина : 8 бит
    Тип развёртки : Прогрессивная
    Бит/(Пиксели*Кадры) : 0.188
    Размер потока : 637 Мбайт (84%)
    Default : Да
    Forced : Нет
    Цветовой диапазон : Limited
    Основные цвета : BT.709
    Характеристики трансфера : BT.709
    Коэффициенты матрицы : BT.709

    Аудио #1
    Идентификатор : 2
    Формат : AC-3
    Формат/Информация : Audio Coding 3
    Идентификатор кодека : A_AC3
    Продолжительность : 21 м. 26 с.
    Вид битрейта : Постоянный
    Битрейт : 384 Кбит/сек
    Каналы : 2 канала
    Расположение каналов : Front: L R
    Частота : 48,0 КГц
    Частота кадров : 31,250 кадров/сек (1536 SPF)
    Битовая глубина : 16 бит
    Метод сжатия : С потерями
    Задержка видео : 23 мс.
    Размер потока : 58,9 Мбайт (8%)
    Язык : Russian
    ServiceKind/String : Complete Main
    Default : Да
    Forced : Нет

    Аудио #2
    Идентификатор : 3
    Формат : AC-3
    Формат/Информация : Audio Coding 3
    Идентификатор кодека : A_AC3
    Продолжительность : 21 м. 26 с.
    Вид битрейта : Постоянный
    Битрейт : 384 Кбит/сек
    Каналы : 2 канала
    Расположение каналов : Front: L R
    Частота : 48,0 КГц
    Частота кадров : 31,250 кадров/сек (1536 SPF)
    Битовая глубина : 16 бит
    Метод сжатия : С потерями
    Задержка видео : 27 мс.
    Размер потока : 58,9 Мбайт (8%)
    Язык : English
    ServiceKind/String : Complete Main
    Default : Нет
    Forced : Нет



    Скриншоты:
    скриншот   скриншот   скриншот   скриншот   скриншот   скриншот   скриншот  
    скриншот  

    Раздача ведётся путём добавления новых серий. Добавлена 10 серия (16.03.2018).Просьба перекачать торрент файл.

    pb.wtf



  • Скачать Монстры корпорации через торрент http://pic1.kartinco.top/images/11/zmtlv.jpg Скачать фильм Монстры корпорации через торрент бесплантно в хорошем качестве qw.png Мэтт и Джейк - младшие менеджеры в бездушной многонациональной корпорации, находящиеся во власти тиранического генерального ... 7 10 3
    Info! Золотая раздача, скачанное не засчитывается.
    Торрент: Зарегистрирован [2018-03-15 23:57] · скачан: 7 раз
    Статус: √ проверено
    Размер: 7.05 GB
    Как cкачать? Как скачать Монстры корпорации через торрент | qTorrent

    % Раздел Тема Автор DL S | L
    Зарубежные сериалы [ 28.16 GB ] Монстры корпорации / Корпорация / Corporate / Сезон: 1-3 / Серии: 1-26 из 26 [2018-2020 WEB-DL 1080p] [MVO] killermax2013 Скачать
    3 | 1
    Зарубежные сериалы [ 1.03 GB ] Монстры корпорации / Корпорация / Corporate / Сезон: 2 / Серии: 1 из 10 [2019 WEBRip 1080p] MVO [TVShows] bober100 Скачать
    1 | 0
    Зарубежные сериалы [ 2.44 GB ] Монстры корпорации / Corporate / Сезон: 1 / Серии: 1-10 из 10 [2018 WEB-DLRip] DVO [Кубик в Кубе] bober100 Скачать
    1 | 0
    Зарубежные сериалы [ 2.36 GB ] Монстры корпорации / Corporate / Сезон: 1 / Серии 1-10 из 10 [2017 WEB-DLRip] MVO [BaibaKo] GEKADOL Скачать
    1 | 0

    28-11-2019 20:33  

    Отключить всю рекламу на сайте

      Дорогой пользователь! Огромная просьба, поблагодарите релизера, оцените раздачу и оставьте свои комментарий, если Вы скачали Монстры корпорации через торрент бесплатно! Внесите свою лепту в развитие PiratBit!
      Комментировать посты могут только пользователи прошедшие не сложную регистрацию
      Показать сообщения:    

      Монстры корпорации через торрент
      Скачать бесплатно Монстры корпорации
      Монстры корпорации скачать торрент
      Монстры корпорации смотреть онлайн
      Cкачать фильм Монстры корпорации бесплатно
      Монстры корпорации скачать торрент в хорошем качестве
      Монстры корпорации смотреть онлайн бесплатно в хорошем качестве


      Вы не можете начинать темы
      Вы не можете отвечать на сообщения
      Вы не можете редактировать свои сообщения
      Вы не можете удалять свои сообщения
      Вы не можете голосовать в опросах
      Вы не можете прикреплять файлы к сообщениям
      Вы можете скачивать файлы