2 сезон

iTunes

1 сезон

1

iTunes

iTunes

iTunes

1 сезон

RePack

30

ИГРА 18+

pack

ВАЖНО

!!Акция!!

Alien_RageХит недели

RePack

MK11
pack

Забери бонус

RePack

jed

!!Акция!!

Alien_Rage

RePack

fifa19

RePack

Assassins Creed: Odyssey

RePack

NEED FOR SPEED™ PAYBACK

4 сезон

9 сезон

Бесстыжие 9 сезон

Все сериалы

все сериалы на PB.wtf

RePack

FAR CRY 5
  

Ноябрьские преступники / November Criminals (Саша Джерваси) [2017, драма, криминал, детектив, BDRip 1080p] MVO [Лицензия] pb.wtf

Ноябрьские преступники через торрент pb.wtf

Размер: 9.11 GB | Добавлен: 2 года 10 мес. назад | Торрент скачан:249 раз
Скачать  

29-12-2017 01:32 Ноябрьские преступники Скачать торрент  

Ноябрьские преступники / November CriminalsГод выпуска: 2017
Страна: США
Жанр: драма, криминал, детектив
Продолжительность: 01:25:54
Перевод: Профессиональный многоголосый | [Лицензия]
Субтитры: Русские, английские

Режиссер: Саша Джерваси

rating

В ролях:

Хлоя Грейс Морец, Энсел Элгорт, Кэтрин Кинер, Дэвид Стрэтэйрн, Терри Кинни, Дэн Флаэрти, Кори Хардрикт, Виктор Уильямс, Элли Маршалл, Ноэль Рамос

Описание:

18-летний Эддисон распространяет в школе наркотики, оскорбляет учителей, зло шутит надо всеми. Но когда от пули погибает его одноклассник, Эддисон берется за смелое расследование и попутно влюбляется в свою напарницу.

Качество: BDRip 1080p
Формат: MKV
Видео кодек: H.264
Аудио кодек: AC3

Видео: 1920x1080 at 23.976 fps, x264@L4.1, ~13 Mbps avg
Аудио#1: Russian: 48 kHz, AC3, 3/2 (L,C,R,l,r) + LFE ch, ~640 kbps avg
Аудио#2: English: 48 kHz, DTS, 3/2 (L,C,R,l,r) + LFE ch, ~1509 kbps avg
скриншот   скриншот   скриншот   скриншот   скриншот  

Общее
Unique ID : 226309297781171404979151400766625045560 (0xAA4195D81F12E8DBA0C23FFEFC545C38)
Complete name : November.Criminals.2017.1080p.BDRip.Rus.Eng.mkv
Format : Matroska
Format version : Version 2
File size : 9,11 Гбайт
Duration : 1 ч. 25 м.
Overall bit rate : 15,2 Мбит/сек
Encoded date : UTC 2017-12-28 11:40:39
Writing application : mkvmerge v8.3.0 ('Over the Horizon') 64bit
Writing library : libebml v1.3.1 + libmatroska v1.4.2

Видео
ID : 1
Format : AVC
Format/Info : Advanced Video Codec
Format profile : High@L4.1
Format settings : CABAC / 4 Ref Frames
Format settings, CABAC : Да
Format settings, RefFrames : 4 кадра
Codec ID : V_MPEG4/ISO/AVC
Duration : 1 ч. 25 м.
Bit rate : 13,0 Мбит/сек
Width : 1920 пикселей
Height : 1080 пикселей
Display aspect ratio : 16:9
Frame rate mode : Постоянный
Frame rate : 23,976 (24000/1001) кадра/сек
Color space : YUV
Chroma subsampling : 4:2:0
Bit depth : 8 бит
Scan type : Прогрессивная
Bits/(Pixel*Frame) : 0.261
Stream size : 7,79 Гбайт (85%)
Writing library : x264 core 152 r2851kMod ba24899
Encoding settings : cabac=1 / ref=4 / deblock=1:-3:-3 / analyse=0x3:0x133 / me=umh / subme=10 / psy=1 / fade_compensate=0.00 / psy_rd=1.00:0.00 / mixed_ref=1 / me_range=32 / chroma_me=1 / trellis=2 / 8x8dct=1 / cqm=0 / deadzone=21,11 / fast_pskip=0 / chroma_qp_offset=-2 / threads=24 / lookahead_threads=4 / sliced_threads=0 / nr=0 / decimate=1 / interlaced=0 / bluray_compat=0 / constrained_intra=0 / bframes=9 / b_pyramid=2 / b_adapt=2 / b_bias=0 / direct=1 / weightb=1 / open_gop=0 / weightp=2 / keyint=240 / keyint_min=23 / scenecut=40 / intra_refresh=0 / rc_lookahead=60 / rc=crf / mbtree=0 / crf=17.6000 / qcomp=0.60 / qpmin=0 / qpmax=69 / qpstep=4 / vbv_maxrate=50000 / vbv_bufsize=62500 / crf_max=0.0 / nal_hrd=none / filler=0 / ip_ratio=1.35 / pb_ratio=1.25 / aq=3:0.80
Language : English
Default : Да
Forced : Нет

Аудио #1
ID : 2
Format : AC-3
Format/Info : Audio Coding 3
Codec ID : A_AC3
Duration : 1 ч. 25 м.
Bit rate mode : Постоянный
Bit rate : 640 Кбит/сек
Channel(s) : 6 каналов
Channel positions : Front: L C R, Side: L R, LFE
Sampling rate : 48,0 КГц
Frame rate : 31,250 кадров/сек (1536 SPF)
Bit depth : 16 бит
Compression mode : С потерями
Stream size : 393 Мбайт (4%)
Language : Russian
Service kind : Complete Main
Default : Да
Forced : Нет

Аудио #2
ID : 3
Format : DTS
Format/Info : Digital Theater Systems
Codec ID : A_DTS
Duration : 1 ч. 25 м.
Bit rate mode : Постоянный
Bit rate : 1509 Кбит/сек
Channel(s) : 6 каналов
Channel positions : Front: L C R, Side: L R, LFE
Sampling rate : 48,0 КГц
Frame rate : 93,750 кадра/сек (512 SPF)
Bit depth : 24 бит
Compression mode : С потерями
Stream size : 927 Мбайт (10%)
Language : English
Default : Нет
Forced : Нет

Текст #1
ID : 4
Format : PGS
Muxing mode : zlib
Codec ID : S_HDMV/PGS
Codec ID/Info : Picture based subtitle format used on BDs/HD-DVDs
Duration : 1 ч. 24 м.
Bit rate : 11,1 Кбит/сек
Count of elements : 2442
Stream size : 6,77 Мбайт (0%)
Language : Russian
Default : Да
Forced : Нет

Текст #2
ID : 5
Format : PGS
Muxing mode : zlib
Codec ID : S_HDMV/PGS
Codec ID/Info : Picture based subtitle format used on BDs/HD-DVDs
Duration : 1 ч. 15 м.
Bit rate : 13,6 Кбит/сек
Count of elements : 2406
Stream size : 7,36 Мбайт (0%)
Language : English
Default : Нет
Forced : Нет

Текст #3
ID : 6
Format : PGS
Muxing mode : zlib
Codec ID : S_HDMV/PGS
Codec ID/Info : Picture based subtitle format used on BDs/HD-DVDs
Duration : 1 ч. 19 м.
Bit rate : 15,3 Кбит/сек
Count of elements : 2819
Stream size : 8,73 Мбайт (0%)
Language : English
Default : Нет
Forced : Нет

Текст #4
ID : 7
Format : PGS
Muxing mode : zlib
Codec ID : S_HDMV/PGS
Codec ID/Info : Picture based subtitle format used on BDs/HD-DVDs
Duration : 1 ч. 15 м.
Bit rate : 13,6 Кбит/сек
Count of elements : 2406
Stream size : 7,36 Мбайт (0%)
Language : English
Default : Нет
Forced : Нет

Меню
00:00:00.000 : en:
00:08:00.522 : en:
00:12:34.837 : en:
00:16:58.392 : en:
00:20:41.740 : en:
00:23:47.885 : en:
00:28:06.560 : en:
00:33:31.593 : en:
00:41:05.505 : en:
00:46:20.987 : en:
00:50:08.339 : en:
00:56:56.580 : en:
00:59:55.717 : en:
01:05:51.197 : en:
01:09:35.963 : en:
01:13:45.171 : en:

pb.wtf



Скачать Ноябрьские преступники через торрент http://picplus.ru/img/1712/28/d0662f71.jpg Скачать фильм Ноябрьские преступники через торрент бесплантно в хорошем качестве Описание: 18-летний Эддисон распространяет в школе наркотики, оскорбляет учителей, зло шутит надо всеми. Но когда от пули погибает его ... 8.8 10 12
Торрент: Зарегистрирован [2017-12-29 01:32] · скачан: 249 раз
Статус: √ проверено
Размер: 9.11 GB
Как cкачать? Как скачать Ноябрьские преступники через торрент | qTorrent

% Раздел Тема Автор DL S | L
Фильмы 2017 [DVDrip, WEB-DLRip, HDrip] (DUB, MVO) [ 1.46 GB ] Ноябрьские преступники / November Criminals [2017 BDRip] MVO [] Twi7ter Скачать
1 | 0
Фильмы 2017 [DVDrip, WEB-DLRip, HDrip] (DUB, MVO) [ 1.46 GB ] Ноябрьские преступники / November Criminals [2017 HDRip многоголосый закадровый " BD EUR"] coc900 Скачать
1 | 0
Фильмы (Blu-ray, BD-Remux, HDDVD) [ 16.59 GB ] Ноябрьские преступники / November Criminals [2017 BD Remux 1080p] MVO [] bober100 Скачать
1 | 0
Фильмы 2017 [DVDrip, WEB-DLRip, HDrip] (DUB, MVO) [ 698 MB ] Ноябрьские преступники / November Criminals [2017 HDRip Профессиональное [лицензия] Sherif Скачать
1 | 0
Фильмы 2017 [DVDrip, WEB-DLRip, HDrip] (DUB, MVO) [ 1.46 GB ] Ноябрьские преступники / November Criminals [2017 HDRip-AVC] MVO [] Loc387 Скачать
1 | 0
Фильмы 2017 [DVDrip, WEB-DLRip, HDrip] (DUB, MVO) [ 1.37 GB ] Ноябрьские преступники / November Criminals [2017 HDRip Профессиональное [лицензия] Ворон Скачать
1 | 0


Последний раз редактировалось: bober100 (2018-01-02 17:47), всего редактировалось 1 раз

28-11-2019 20:33  

Отключить всю рекламу на сайте

02-01-2018 05:05 Ноябрьские преступники Скачать торрент  

когда дубляж?)pb.wtf



02-01-2018 17:59 Ноябрьские преступники Скачать торрент  

Dimka+ писал(а):

когда дубляж?)

Это лицензия, а значит не когда.pb.wtf



18-01-2018 17:52 Ноябрьские преступники Скачать торрент  

Спасибо за хорошее качествоpb.wtf



    Дорогой пользователь! Огромная просьба, поблагодарите релизера, оцените раздачу и оставьте свои комментарий, если Вы скачали Ноябрьские преступники через торрент бесплатно! Внесите свою лепту в развитие PiratBit!
    Комментировать посты могут только пользователи прошедшие не сложную регистрацию
    Показать сообщения:    

    Ноябрьские преступники через торрент
    Скачать бесплатно Ноябрьские преступники
    Ноябрьские преступники скачать торрент
    Ноябрьские преступники смотреть онлайн
    Cкачать фильм Ноябрьские преступники бесплатно
    Ноябрьские преступники скачать торрент в хорошем качестве
    Ноябрьские преступники смотреть онлайн бесплатно в хорошем качестве


    Вы не можете начинать темы
    Вы не можете отвечать на сообщения
    Вы не можете редактировать свои сообщения
    Вы не можете удалять свои сообщения
    Вы не можете голосовать в опросах
    Вы не можете прикреплять файлы к сообщениям
    Вы можете скачивать файлы