2 сезон

iTunes

MVO

1

2 сезон

iTunes

iTunes

1 сезон

RePack

30

Новинка

ВАЖНО

ИГРА 18+

pack

RePack

MK11
pack

Легкие деньги

RePack

jed

RePack

fifa19

RePack

RDR2

RePack

NEED FOR SPEED™ PAYBACK

4 сезон

9 сезон

Бесстыжие 9 сезон

Все сериалы

все сериалы на PB.wtf

RePack

FAR CRY 5

Anonymous, добрый день, мы не успеваем собрать деньги на оплату серверов за декабрь и январь, помогите нам пожалуйста в это трудное время. В качестве благодарности мы отключим Вам всю рекламу на сайте (укажите свой ник в строку Ваше имя)!

×
  
Magnet ссылка

Иностранец / The Foreigner (Мартин Кэмпбелл) [2017, боевик, триллер, HDRip-AVC] [DUB] [Лицензия] - ExKinoRay pb.wtf

Иностранец через торрент pb.wtf

Размер: 1.89 GB | Добавлен: 2 года 9 мес. назад | Торрент скачан:341 раз
Скачать  

29-12-2017 03:59 Иностранец Скачать торрент  

Информация о фильме
Название: Иностранец
Оригинальное название: The Foreigner
Год выпуска: 2017
Жанр: Боевик, триллер, драма
Страна: Великобритания, Китай, США
Студия: thefyzz, SR Media, Huayi Brothers, STX Entertainment
Продолжительность: 01:53:52
Перевод: Дублированный |Лицензия
Субтитры: Русские, английские
Режиссер: Мартин Кэмпбелл
В ролях: Кэти Льюнг, Джеки Чан, Руфус Джонс, Марк Тэнди, Каолан Бирн, Аарон Монахэн, Пирс Броснан

Описание:
Бывший спецагент, ветеран вьетнамской войны Цюань давно сложил оружие и завел мирную жизнь. Но после того, как в теракте прямо на глазах погибает его дочь-подросток, видя, что власти не спешат разыскивать преступников, Цюань сам начинает поиск убийцы. Он пойдет на все, чтобы совершить праведное возмездие…

rating

Файл
Формат: MKV
Качество: HDRip-AVC
Видео: AVC, 1024х428 (2.40:1), 1478 kbps, 23.976 fps, 0,141 bpp
Аудио 1: 48 kHz, AC3, 5.1, 448 Kbps | RUS |
Аудио 2: 48 kHz, AC3, 5.1, 448 Kbps | ENG |
General
Unique ID : 245712288331418703023124123588143478950 (0xB8DA7723271D13BCB4AE16AA28E5F8A6)
Complete name : D:\The.Foreigner.2017.HDRip.AVC.ExKinoRay.mkv
Format : Matroska
Format version : Version 2
File size : 1.89 GiB
Duration : 1 h 53 min
Overall bit rate : 2 372 kb/s
Movie name : The Foreigner 2017 from ExKinoRay
Encoded date : UTC 2018-03-30 20:11:48
Writing application : mkvmerge v5.6.0 ('Kenya Kane') built on May 27 2012 16:44:04
Writing library : libebml v1.2.3 + libmatroska v1.3.0

Video
ID : 1
Format : AVC
Format/Info : Advanced Video Codec
Format profile : High@L4.1
Format settings, CABAC : Yes
Format settings, ReFrames : 12 frames
Codec ID : V_MPEG4/ISO/AVC
Duration : 1 h 53 min
Bit rate : 1 478 kb/s
Width : 1 024 pixels
Height : 428 pixels
Display aspect ratio : 2.40:1
Frame rate mode : Constant
Frame rate : 23.976 (23976/1000) FPS
Color space : YUV
Chroma subsampling : 4:2:0
Bit depth : 8 bits
Scan type : Progressive
Bits/(Pixel*Frame) : 0.141
Stream size : 1.14 GiB (60%)
Title : Enigma
Writing library : x264 core 152 r2851 ba24899
Encoding settings : cabac=1 / ref=12 / deblock=1:-2:-3 / analyse=0x3:0x113 / me=umh / subme=11 / psy=1 / psy_rd=1.00:0.05 / mixed_ref=1 / me_range=32 / chroma_me=1 / trellis=2 / 8x8dct=1 / cqm=0 / deadzone=21,11 / fast_pskip=0 / chroma_qp_offset=-3 / threads=12 / lookahead_threads=3 / sliced_threads=0 / nr=0 / decimate=0 / interlaced=0 / bluray_compat=0 / constrained_intra=0 / bframes=12 / b_pyramid=2 / b_adapt=2 / b_bias=0 / direct=3 / weightb=1 / open_gop=0 / weightp=2 / keyint=240 / keyint_min=23 / scenecut=40 / intra_refresh=0 / rc_lookahead=40 / rc=2pass / mbtree=0 / bitrate=1478 / ratetol=1.0 / qcomp=0.60 / qpmin=0 / qpmax=51 / qpstep=4 / cplxblur=20.0 / qblur=0.5 / vbv_maxrate=50000 / vbv_bufsize=62500 / nal_hrd=none / filler=0 / ip_ratio=1.40 / pb_ratio=1.30 / aq=3:0.80
Language : English
Default : Yes
Forced : No
Color range : Limited
Color primaries : BT.709
Transfer characteristics : BT.709
Matrix coefficients : BT.709

Audio #1
ID : 2
Format : AC-3
Format/Info : Audio Coding 3
Mode extension : CM (complete main)
Format settings, Endianness : Big
Codec ID : A_AC3
Duration : 1 h 53 min
Bit rate mode : Constant
Bit rate : 448 kb/s
Channel(s) : 6 channels
Channel positions : Front: L C R, Side: L R, LFE
Sampling rate : 48.0 kHz
Frame rate : 31.250 FPS (1536 spf)
Compression mode : Lossy
Stream size : 365 MiB (19%)
Title : Dub (Blu-ray RUS)
Language : Russian
Default : Yes
Forced : No

Audio #2
ID : 3
Format : AC-3
Format/Info : Audio Coding 3
Mode extension : CM (complete main)
Format settings, Endianness : Big
Codec ID : A_AC3
Duration : 1 h 53 min
Bit rate mode : Constant
Bit rate : 448 kb/s
Channel(s) : 6 channels
Channel positions : Front: L C R, Side: L R, LFE
Sampling rate : 48.0 kHz
Frame rate : 31.250 FPS (1536 spf)
Compression mode : Lossy
Stream size : 365 MiB (19%)
Language : English
Default : No
Forced : No

Text #1
ID : 4
Format : UTF-8
Codec ID : S_TEXT/UTF8
Codec ID/Info : UTF-8 Plain Text
Language : Russian
Default : No
Forced : No

Text #2
ID : 5
Format : UTF-8
Codec ID : S_TEXT/UTF8
Codec ID/Info : UTF-8 Plain Text
Title : Full
Language : English
Default : No
Forced : No

Text #3
ID : 6
Format : UTF-8
Codec ID : S_TEXT/UTF8
Codec ID/Info : UTF-8 Plain Text
Title : SDH
Language : English
Default : No
Forced : No

Text #4
ID : 7
Format : UTF-8
Codec ID : S_TEXT/UTF8
Codec ID/Info : UTF-8 Plain Text
Title : SDH-Colored
Language : English
Default : No
Forced : No

Menu
00:00:00.000 : en:00:00:00.000
00:08:19.541 : en:00:08:19.541
00:15:49.574 : en:00:15:49.574
00:21:47.765 : en:00:21:47.765
00:27:04.164 : en:00:27:04.164
00:32:09.511 : en:00:32:09.511
00:35:24.164 : en:00:35:24.164
00:38:30.934 : en:00:38:30.934
00:43:50.169 : en:00:43:50.169
00:47:38.189 : en:00:47:38.189
00:54:10.497 : en:00:54:10.497
01:01:42.324 : en:01:01:42.324
01:08:07.333 : en:01:08:07.333
01:14:14.033 : en:01:14:14.033
01:18:42.927 : en:01:18:42.927
01:23:26.877 : en:01:23:26.877
01:29:18.812 : en:01:29:18.812
01:38:55.012 : en:01:38:55.012
01:43:45.928 : en:01:43:45.928
01:47:09.298 : en:01:47:09.298
Релиз от:

Автор релиза: pb.wtf



Скачать Иностранец через торрент http://i100.fastpic.ru/big/2017/1226/36/3e96115f94af8cfc1d22d7e9820f9f36.jpg Скачать фильм Иностранец через торрент бесплантно в хорошем качестве Описание: Бывший спецагент, ветеран вьетнамской войны Цюань давно сложил оружие и завел мирную жизнь. Но после того, как в теракте прямо на ... 9.6 10 28
Info! Золотая раздача, скачанное не засчитывается.
Торрент: Зарегистрирован [2018-03-30 20:50] · скачан: 341 раз
Статус: √ проверено
Размер: 1.89 GB
Как cкачать? Как скачать Иностранец через торрент | UTorrent



Последний раз редактировалось: Enigma2010 (2018-03-30 20:50), всего редактировалось 2 раз(а)

28-11-2019 20:33  

Отключить всю рекламу на сайте

29-12-2017 17:38 Иностранец Скачать торрент  

хорошии фильмpb.wtf



29-12-2017 21:27 Иностранец Скачать торрент  

Фильм отличный! Мы с супругой поклонники Джеки Чана и к нашему удивлению в этом фильме он совсем не такой как мы раньше его видели! Отличный режиссер, крепкий сценарий, отменные актеры и смотрится на одном дыхании! Всем рекомендую к просмотру!pb.wtf



30-12-2017 09:42 Иностранец Скачать торрент  

Фильм хороший. Не понятно только, почему в описании ГГ называют Цюань, а в самом фильме - Кван? pb.wtf



30-12-2017 11:35 Иностранец Скачать торрент  

Политическая ерунда.pb.wtf



30-12-2017 19:02 Иностранец Скачать торрент  

Отличный фильмpb.wtf



31-12-2017 18:34 Иностранец Скачать торрент  

У старины Джеки есть еще порох в пороховницах. Отличный сюжет, хоть и политизированный, благо не актуально для наших широт. Шикарная постановка и работа режиссера, звук мне тоже понравился
Советуюpb.wtf



28-01-2018 00:16 Иностранец Скачать торрент  

А отличный вышел фильм! И Джеки не подвёл, сумел найти себя "на пенсии", в отличие от многих прочих звёзд боевиков, которые живут только прошлой славой! Здорово!pb.wtf



28-01-2018 00:41 Иностранец Скачать торрент  

Один старый китаец перехерачил всех бойцов ирландской повстанческой армий с которой на протяжении 20 века ничего не смогли сделать англичане. Вы серьёзно? Ребята учите историю что бы не быть лохами!pb.wtf



30-03-2018 20:51 Иностранец Скачать торрент  

Замена на лицензию, добавлены русские субтитры.pb.wtf



    Дорогой пользователь! Огромная просьба, поблагодарите релизера, оцените раздачу и оставьте свои комментарий, если Вы скачали Иностранец через торрент бесплатно! Внесите свою лепту в развитие PiratBit!
    Комментировать посты могут только пользователи прошедшие не сложную регистрацию
    Показать сообщения:    

    Иностранец через торрент
    Скачать бесплатно Иностранец
    Иностранец скачать торрент
    Иностранец смотреть онлайн
    Cкачать фильм Иностранец бесплатно
    Иностранец скачать торрент в хорошем качестве
    Иностранец смотреть онлайн бесплатно в хорошем качестве


    Вы не можете начинать темы
    Вы не можете отвечать на сообщения
    Вы не можете редактировать свои сообщения
    Вы не можете удалять свои сообщения
    Вы не можете голосовать в опросах
    Вы не можете прикреплять файлы к сообщениям
    Вы можете скачивать файлы