2 сезон

iTunes

1 сезон

1

iTunes

iTunes

iTunes

1 сезон

RePack

30

ИГРА 18+

pack

ВАЖНО

!!Акция!!

Alien_RageХит недели

RePack

MK11
pack

Забери бонус

RePack

jed

!!Акция!!

Alien_Rage

RePack

fifa19

RePack

Assassins Creed: Odyssey

RePack

NEED FOR SPEED™ PAYBACK

4 сезон

9 сезон

Бесстыжие 9 сезон

Все сериалы

все сериалы на PB.wtf

RePack

FAR CRY 5
  

Вспомнить заново / Rememory (Марк Палански) [2017, фантастика, драма, детектив, BDRip 1080p] MVO [AlexFilm] pb.wtf

Вспомнить заново через торрент pb.wtf

Размер: 9.44 GB | Добавлен: 2 года 10 мес. назад | Торрент скачан:186 раз
Скачать  

29-12-2017 06:11 Вспомнить заново Скачать торрент  

Вспомнить заново / RememoryГод выпуска: 2017
Страна: Канада, США
Жанр: фантастика, драма, детектив
Продолжительность: 01:51:53
Перевод: Профессиональный многоголосый -
Субтитры: Английские

Режиссер: Марк Палански

rating

В ролях:

Питер Динклэйдж, Мэтт Эллис, Джордана Ларги, Мартин Донован, Эвелин Брошу, Генри Йен Кьюсик, Антон Ельчин, Джулия Ормонд, Грэйсин Шиней, Колин Лоуренс

Описание:

Фильм расскажет о гениальном ученом, загадочным образом умирающем ровно за день до представления своего уникального открытия - прибора, который может записывать и воспроизводить воспоминания.

Качество: BDRip 1080p
Формат: MKV
Видео кодек: H.264
Аудио кодек: AC3/DTS

Видео: MPEG-4 AVC, 9903 Кбит/с, 1920x800
Аудио#1: Русский (AC3, 2 ch, 192 Кбит/с) — AlexFilm
Аудио#2: английский (DTS, 6 ch, 1510 Кбит/с) — Original
Аудио#3: английский (AC3, 2 ch, 224 Кбит/с) — Commentary with Writer-Director Mark Palansky and Actor Peter Dinklage

Рекламы нет!!!
скриншот  скриншот  скриншот  

Общее
Уникальный идентификатор : 208687454892035669413728000173685796387 (0x9CFFBDE930BE659B95239131BC6AEE23)
Полное имя : D:\Rememory.2017.BDRip.1080p.by.lexxblack.mkv
Формат : Matroska
Версия формата : Version 2
Размер файла : 9,44 Гбайт
Продолжительность : 1 ч. 51 м.
Общий поток : 12,1 Мбит/сек
Название фильма : Rememory (2017) by lexxblack
Дата кодирования : UTC 2017-12-28 16:55:57
Программа кодирования : mkvmerge v9.9.0 ('Pick Up') 32bit
Библиотека кодирования : libebml v1.3.4 + libmatroska v1.4.5
Обложка : Yes
Attachments : cover.jpg

Видео
Идентификатор : 1
Формат : AVC
Формат/Информация : Advanced Video Codec
Профиль формата : High@L4.1
Настройки формата : CABAC / 4 Ref Frames
Параметр CABAC формата : Да
Параметр RefFrames формата : 4 кадра
Идентификатор кодека : V_MPEG4/ISO/AVC
Продолжительность : 1 ч. 51 м.
Битрейт : 9903 Кбит/сек
Ширина : 1920 пикселей
Высота : 800 пикселей
Соотношение сторон : 2,40:1
Режим частоты кадров : Постоянный
Частота кадров : 23,976 (24000/1001) кадра/сек
Цветовое пространство : YUV
Субдискретизация насыщенности : 4:2:0
Битовая глубина : 8 бит
Тип развёртки : Прогрессивная
Бит/(Пиксели*Кадры) : 0.269
Размер потока : 7,74 Гбайт (82%)
Заголовок : Rememory (2017) by lexxblack
Библиотека кодирования : x264 core 149 r2771+45 509cceb 7mod [8-bit@all X86_64]
Настройки программы : cabac=1 / ref=4 / deblock=1:-3:-3 / analyse=0x3:0x113 / me=umh / subme=10 / psy=1 / fade_compensate=0.00 / psy_rd=0.90:0.10 / mixed_ref=1 / me_range=48 / chroma_me=1 / trellis=2 / 8x8dct=1 / cqm=0 / deadzone=21,11 / fast_pskip=0 / chroma_qp_offset=-2 / threads=12 / lookahead_threads=2 / sliced_threads=0 / nr=0 / decimate=1 / interlaced=0 / bluray_compat=0 / constrained_intra=0 / fgo=0 / bframes=8 / b_pyramid=2 / b_adapt=2 / b_bias=0 / direct=3 / weightb=1 / open_gop=0 / weightp=2 / keyint=250 / keyint_min=23 / scenecut=40 / intra_refresh=0 / rc_lookahead=40 / rc=crf / mbtree=0 / crf=18.0000 / qcomp=0.70 / qpmin=0:0:0 / qpmax=69:69:69 / qpstep=4 / vbv_maxrate=35000 / vbv_bufsize=35000 / crf_max=0.0 / nal_hrd=none / filler=0 / ip_ratio=1.40 / pb_ratio=1.30 / aq=3:1.00 / aq-sensitivity=10.00 / aq-factor=1.00:1.00:1.00 / aq2=0 / aq3=2:[0.50:0.50]:[0.50:0.50]:[0.50:0.50]:[0.50:0.50] / aq3-sensitivity=10.00 / aq3-factor=[1.00:1.00]:[1.00:1.00]:[1.00:1.00] / aq3-boundary=192:64:24
Язык : English
Default : Да
Forced : Нет
Цветовой диапазон : Limited
Коэффициенты матрицы : BT.709

Аудио #1
Идентификатор : 2
Формат : AC-3
Формат/Информация : Audio Coding 3
Идентификатор кодека : A_AC3
Продолжительность : 1 ч. 51 м.
Вид битрейта : Постоянный
Битрейт : 192 Кбит/сек
Каналы : 2 канала
Расположение каналов : Front: L R
Частота : 48,0 КГц
Частота кадров : 31,250 кадров/сек (1536 SPF)
Битовая глубина : 16 бит
Метод сжатия : С потерями
Размер потока : 154 Мбайт (2%)
Заголовок : Многоголосый закадровый - AlexFilm
Язык : Russian
ServiceKind/String : Complete Main
Default : Да
Forced : Нет

Аудио #2
Идентификатор : 3
Формат : DTS
Формат/Информация : Digital Theater Systems
Идентификатор кодека : A_DTS
Продолжительность : 1 ч. 51 м.
Вид битрейта : Постоянный
Битрейт : 1509 Кбит/сек
Каналы : 6 каналов
Расположение каналов : Front: L C R, Side: L R, LFE
Частота : 48,0 КГц
Частота кадров : 93,750 кадра/сек (512 SPF)
Битовая глубина : 24 бит
Метод сжатия : С потерями
Размер потока : 1,18 Гбайт (13%)
Заголовок : Original
Язык : English
Default : Нет
Forced : Нет

Аудио #3
Идентификатор : 4
Формат : AC-3
Формат/Информация : Audio Coding 3
Идентификатор кодека : A_AC3
Продолжительность : 1 ч. 51 м.
Вид битрейта : Постоянный
Битрейт : 224 Кбит/сек
Каналы : 2 канала
Расположение каналов : Front: L R
Частота : 48,0 КГц
Частота кадров : 31,250 кадров/сек (1536 SPF)
Битовая глубина : 16 бит
Метод сжатия : С потерями
Размер потока : 179 Мбайт (2%)
Заголовок : Commentary with Writer-Director Mark Palansky and Actor Peter Dinklage
Язык : English
ServiceKind/String : Complete Main
Default : Нет
Forced : Нет

Текст
Идентификатор : 5
Формат : UTF-8
Идентификатор кодека : S_TEXT/UTF8
Идентификатор кодека/Информация : UTF-8 Plain Text
Заголовок : Full
Язык : English
Default : Нет
Forced : Нет

Меню
00:00:00.000 : en:chapter 01
00:07:04.924 : en:chapter 02
00:12:50.228 : en:chapter 03
00:18:17.471 : en:chapter 04
00:24:47.486 : en:chapter 05
00:32:51.052 : en:chapter 06
00:41:13.805 : en:chapter 07
00:46:14.772 : en:chapter 08
00:54:20.299 : en:chapter 09
01:01:30.603 : en:chapter 10
01:06:42.915 : en:chapter 11
01:14:57.701 : en:chapter 12
01:21:11.074 : en:chapter 13
01:28:28.428 : en:chapter 14
01:36:12.266 : en:chapter 15
01:42:20.634 : en:chapter 16

pb.wtf



Скачать Вспомнить заново через торрент http://s018.radikal.ru/i503/1711/c7/e272ff96c285.jpg Скачать фильм Вспомнить заново через торрент бесплантно в хорошем качестве Описание: Фильм расскажет о гениальном ученом, загадочным образом умирающем ровно за день до представления своего уникального открытия - ... 9.3 10 10
Торрент: Зарегистрирован [2017-12-30 15:30] · скачан: 186 раз
Статус: √ проверено
Размер: 9.44 GB
Как cкачать? Как скачать Вспомнить заново через торрент | qTorrent

% Раздел Тема Автор DL S | L
Фильмы 2017 [DVDrip, WEB-DLRip, HDrip] (DUB, MVO) [ 1.85 GB ] Вспомнить заново / Rememory [2017 HDRip-AVC] [MVO] - ExKinoRay Enigma2010 Скачать
1 | 0
Фильмы [HD 720p, 1080p] (Хороший звук DUB, MVO) [ 4.94 GB ] Вспомнить заново / Rememory [2017 BDRip 720p] MVO [AlexFilm] bober100 Скачать
1 | 0
T Фильмы 2017 [DVDrip, WEB-DLRip, HDrip] (DUB, MVO) [ 1.45 GB ] Вспомнить заново / Rememory [2017 WEBRip] [MVO] killermax2013 Скачать
2 | 0

28-11-2019 20:33  

Отключить всю рекламу на сайте

    Дорогой пользователь! Огромная просьба, поблагодарите релизера, оцените раздачу и оставьте свои комментарий, если Вы скачали Вспомнить заново через торрент бесплатно! Внесите свою лепту в развитие PiratBit!
    Комментировать посты могут только пользователи прошедшие не сложную регистрацию
    Показать сообщения:    

    Вспомнить заново через торрент
    Скачать бесплатно Вспомнить заново
    Вспомнить заново скачать торрент
    Вспомнить заново смотреть онлайн
    Cкачать фильм Вспомнить заново бесплатно
    Вспомнить заново скачать торрент в хорошем качестве
    Вспомнить заново смотреть онлайн бесплатно в хорошем качестве


    Вы не можете начинать темы
    Вы не можете отвечать на сообщения
    Вы не можете редактировать свои сообщения
    Вы не можете удалять свои сообщения
    Вы не можете голосовать в опросах
    Вы не можете прикреплять файлы к сообщениям
    Вы можете скачивать файлы