Ссылка на приватное зеркало нашего сайта всего за 1$. Внимание количество ограничено!!!

2 сезон

iTunes

1 сезон

1

iTunes

iTunes

iTunes

1 сезон

RePack

30

ИГРА 18+

pack

ВАЖНО

!!Акция!!

Alien_RageХит недели

RePack

MK11
pack

Забери бонус

RePack

jed

!!Акция!!

Alien_Rage

RePack

fifa19

RePack

Assassins Creed: Odyssey

RePack

NEED FOR SPEED™ PAYBACK

4 сезон

9 сезон

Бесстыжие 9 сезон

Все сериалы

все сериалы на PB.wtf

RePack

FAR CRY 5
  

Путь сквозь снега / Серии 1-2 из 2 (Ашот Кещян) [2017 г., Детектив, Мелодрама, SATRip] pb.wtf

Путь сквозь снега через торрент pb.wtf

Размер: 1.37 GB | Добавлен: 2 года 9 мес. назад | Торрент скачан:92 раза
Скачать  

29-12-2017 13:14 Путь сквозь снега Скачать торрент  

Путь сквозь снега
Год выпуска: 2017
Страна: Россия, Украина
Жанр: Детектив, Мелодрама
Продолжительность: 01:30:39
Субтитры: нет

Режиссер: Ашот Кещян

В ролях: Анастасия Стежко, Денис Шведов, Константин Косинский, Георгий Поволоцкий, Игорь Гнездилов, Тамара Морозова, Алексей Череватенко, Евгений Рачок

Описание: 30 декабря Эля собирается лететь в столицу на встречу с женихом - они познакомились по интернету и решили вместе встретить Новый год. Жених просит девушку захватить с собой кейс с документами, который ей передадут в аэропорту. Тем временем Денис - молодой неоперившийся бандит - получает от главаря задание перехватить этот кейс. Сделать это в аэропорту ему не удается. К тому же из-за непогоды отменяют все рейсы, и в результате Эля с Денисом берут в прокате одну машину на двоих. В дороге мужчина не раз попытается похитить кейс, но это не так просто сделать. Молодых людей ожидает долгий путь...



Качество: SATRip
Формат: AVI
Видео кодек: XviD
Аудио кодек: AC3
Видео: 720x400 (1.80:1), 25 fps, XviD build 50 ~1956 kbps
Аудио#1: 48 kHz, AC3 Dolby Digital, 2/0 (L,R) ch, ~192 kbps
скриншот   скриншот   скриншот   скриншот   скриншот  

General
Complete name : H:\релизы.торрентфайл\Put.skvoz.snega.SATRip.[www.riperam.org].avi
Format : AVI
Format/Info : Audio Video Interleave
File size : 1.37 GiB
Duration : 1h 30mn
Overall bit rate : 2 159 Kbps
Writing application : VirtualDubMod 1.5.10.3 | www.virtualdub-fr.org || (build 2550/release)
Writing library : VirtualDubMod build 2550/release

Video
ID : 0
Format : MPEG-4 Visual
Format profile : Advanced Simple@L5
Format settings, BVOP : 2
Format settings, QPel : No
Format settings, GMC : No warppoints
Format settings, Matrix : Default (H.263)
Codec ID : XVID
Codec ID/Hint : XviD
Duration : 1h 30mn
Bit rate : 1 957 Kbps
Width : 720 pixels
Height : 400 pixels
Display aspect ratio : 16:9
Frame rate : 25.000 fps
Color space : YUV
Chroma subsampling : 4:2:0
Bit depth : 8 bits
Scan type : Progressive
Compression mode : Lossy
Bits/(Pixel*Frame) : 0.272
Stream size : 1.24 GiB (91%)
Writing library : XviD 1.2.1 (UTC 2008-12-04)

Audio
ID : 1
Format : AC-3
Format/Info : Audio Coding 3
Mode extension : CM (complete main)
Format settings, Endianness : Big
Codec ID : 2000
Duration : 1h 30mn
Bit rate mode : Constant
Bit rate : 192 Kbps
Channel(s) : 2 channels
Channel positions : Front: L R
Sampling rate : 48.0 KHz
Bit depth : 16 bits
Compression mode : Lossy
Stream size : 124 MiB (9%)
Alignment : Split accross interleaves
Interleave, duration : 40 ms (1.00 video frame)
Interleave, preload duration : 500 ms

pb.wtf



Скачать Путь сквозь снега через торрент http://i100.fastpic.ru/big/2017/1229/0c/54087ef04433530afb0fd9ce1cb9a90c.jpg Скачать фильм Путь сквозь снега через торрент бесплантно в хорошем качестве Описание: 30 декабря Эля собирается лететь в столицу на встречу с женихом - они познакомились по интернету и решили вместе встретить Новый ... 9.6 10 5
Торрент: Зарегистрирован [2017-12-29 13:14] · скачан: 92 раз
Статус: √ проверено
Размер: 1.37 GB
Как cкачать? Как скачать Путь сквозь снега через торрент | qTorrent

% Раздел Тема Автор DL S | L
Наши сериалы [ 1.08 GB ] Путь сквозь снега / Серии: 1-2 из 2 [2017 SATRip-AVC] aleksan55 Скачать
2 | 0

28-11-2019 20:33  

Отключить всю рекламу на сайте

29-12-2017 13:24 Путь сквозь снега Скачать торрент  

чего как хреново телевизор показывает ??? нафига такое качество ???pb.wtf



29-12-2017 14:18 Путь сквозь снега Скачать торрент  

Топик был перенесен из форума Наши новые фильмы 2017 в форум Наши сериалы


-Lexx-pb.wtf



29-12-2017 15:50 Путь сквозь снега Скачать торрент  

Денис Шведов-классный актер..pb.wtf



    Дорогой пользователь! Огромная просьба, поблагодарите релизера, оцените раздачу и оставьте свои комментарий, если Вы скачали Путь сквозь снега через торрент бесплатно! Внесите свою лепту в развитие PiratBit!
    Комментировать посты могут только пользователи прошедшие не сложную регистрацию
    Показать сообщения:    

    Путь сквозь снега через торрент
    Скачать бесплатно Путь сквозь снега
    Путь сквозь снега скачать торрент
    Путь сквозь снега смотреть онлайн
    Cкачать фильм Путь сквозь снега бесплатно
    Путь сквозь снега скачать торрент в хорошем качестве
    Путь сквозь снега смотреть онлайн бесплатно в хорошем качестве


    Вы не можете начинать темы
    Вы не можете отвечать на сообщения
    Вы не можете редактировать свои сообщения
    Вы не можете удалять свои сообщения
    Вы не можете голосовать в опросах
    Вы не можете прикреплять файлы к сообщениям
    Вы можете скачивать файлы