2 сезон

iTunes

MVO

1

2 сезон

iTunes

iTunes

1 сезон

RePack

30

Новинка

ВАЖНО

ИГРА 18+

pack

RePack

MK11
pack

Легкие деньги

RePack

jed

RePack

fifa19

RePack

RDR2

RePack

NEED FOR SPEED™ PAYBACK

4 сезон

9 сезон

Бесстыжие 9 сезон

Все сериалы

все сериалы на PB.wtf

RePack

FAR CRY 5

Anonymous, доброй ночи, мы не успеваем собрать деньги на оплату серверов за декабрь и январь, помогите нам пожалуйста в это трудное время. В качестве благодарности мы отключим Вам всю рекламу на сайте (укажите свой ник в строку Ваше имя)!

×
  
Magnet ссылка

Восстание планеты обезьян / Rise of the Planet of the Apes (Руперт Уайатт) [2011, фантастика, боевик, триллер, драма, UHD BDRemux 2160p] 2xAVO+MVO+DUB (rus, ukr) [Лицензия] pb.wtf

Восстание планеты обезьян через торрент pb.wtf

Размер: 38.8 GB | Добавлен: 3 года назад | Торрент скачан:29 раз
Скачать  

29-12-2017 15:29 Восстание планеты обезьян Скачать торрент  

Восстание планеты обезьян / Rise of the Planet of the ApesГод выпуска: 2011
Страна: США
Жанр: фантастика, боевик, триллер, драма
Продолжительность: 01:44:56

Перевод:

Дублированный (Лицензия BD CEE),
Профессиональный (многоголосый, закадровый) (Омикрон),
Авторский (одноголосый, закадровый) (В. Горчаков, Ю. Живов)

Субтитры:

Английские, Русские (Full-length, Forced, Audio commentary #1, Audio commentary #2), Украинские (Forced)

Режиссер: Руперт Уайатт

rating

В ролях:

Джеймс Франко, Фрида Пинто, Джон Литгоу, Брайан Кокс, Энди Серкис, Тайлер Лэбин, Том Фелтон, Дэвид Ойелоуо, Джэми Харрис, Карин Коновал

Описание:

Молодой ученый испытывает на обезьянах новое лекарство от болезни Альцгеймера. У препарата обнаруживается удивительный побочный эффект: он повышает в несколько раз интеллект приматов.

Качество: UHD BDRemux 2160p
Формат: MKV
Видео кодек: HEVC
Аудио кодек: AC3/DTS

Видео: HEVC/H.265, 3840x2160p, (16:9), 35.0 Mb/s, 23,976 fps
Аудио#1: DTS, 6 ch, 768 kbps - Русский, Дубляж
Аудио#2: AC3, 6 ch, 448 kbps - Украинский
Аудио#3: DTS-HD MA, 6 ch, 4044 kbps - Русский, Омикрон
Аудио#4: DTS-HD MA, 6 ch, 4018 kbps - Русский, В. Горчаков
Аудио#5: DTS-HD MA, 6 ch, 4024 kbps - Русский, Ю.Живов
Аудио#6: DTS-HD MA, 6 ch, 4008 kbps - Английский
Аудио#7: AC3, 2 ch, 224 kbps - Английский, Commentary #1 (Director)
Аудио#8: AC3, 2 ch, 224 kbps - Английский, Commentary #2 (Writers)


скриншот  скриншот  скриншот  скриншот  скриншот  

General
Unique ID : 206753429475185123442572404914363668897 (0x9B8B43188892D66CBFAD0910AEDD99A1)
Complete name : R_O_T_P_O_T_APES_BD_UHD_HDR_REMUX_BLUEBIRD.mkv
Format : Matroska
Format version : Version 4 / Version 2
File size : 38.8 GiB
Duration : 1 h 44 min
Overall bit rate : 52.9 Mb/s
Movie name : R_O_T_P_O_T_APES_BD_UHD_HDR_REMUX_BLUEBIRD
Encoded date : UTC 2017-11-16 02:11:32
Writing application : mkvmerge v16.0.0 ('Protest') 64-bit
Writing library : libebml v1.3.5 + libmatroska v1.4.8
Cover : Yes
Attachments : cover.png

Video
ID : 1
Format : HEVC
Format/Info : High Efficiency Video Coding
Format profile : Main 10@L5.1@High
Codec ID : V_MPEGH/ISO/HEVC
Duration : 1 h 44 min
Bit rate : 35.0 Mb/s
Width : 3 840 pixels
Height : 2 160 pixels
Display aspect ratio : 16:9
Frame rate mode : Constant
Frame rate : 23.976 (24000/1001) FPS
Color space : YUV
Chroma subsampling : 4:2:0 (Type 2)
Bit depth : 10 bits
Bits/(Pixel*Frame) : 0.176
Stream size : 25.6 GiB (66%)
Title : R_O_T_P_O_T_APES_BD_UHD_HDR_REMUX_BLUEBIRD
Writing library : ATEME Titan File 3.7.8 (4.7.8.0)
Default : Yes
Forced : No
Color range : Limited
Color primaries : BT.2020
Transfer characteristics : SMPTE ST 2084
Matrix coefficients : BT.2020 non-constant
Mastering display color primaries : R: x=0.680000 y=0.320000, G: x=0.265000 y=0.690000, B: x=0.150000 y=0.060000, White point: x=0.312700 y=0.329000
Mastering display luminance : min: 0.0000 cd/m2, max: 1000.0000 cd/m2

Audio #1
ID : 2
Format : DTS
Format/Info : Digital Theater Systems
Mode : 16
Format settings, Endianness : Big
Codec ID : A_DTS
Duration : 1 h 44 min
Bit rate mode : Constant
Bit rate : 768 kb/s
Channel(s) : 6 channels
Channel positions : Front: L C R, Side: L R, LFE
Sampling rate : 48.0 kHz
Frame rate : 93.750 FPS (512 SPF)
Bit depth : 24 bits
Compression mode : Lossy
Stream size : 576 MiB (1%)
Title : [DUB] DTS 5.1 @ 768 kbps
Language : Russian
Default : Yes
Forced : No

Audio #2
ID : 3
Format : AC-3
Format/Info : Audio Coding 3
Format settings, Endianness : Big
Codec ID : A_AC3
Duration : 1 h 44 min
Bit rate mode : Constant
Bit rate : 448 kb/s
Channel(s) : 6 channels
Channel positions : Front: L C R, Side: L R, LFE
Sampling rate : 48.0 kHz
Frame rate : 31.250 FPS (1536 SPF)
Bit depth : 16 bits
Compression mode : Lossy
Stream size : 336 MiB (1%)
Title : [DUB] DD 5.1 @ 448 kbps
Language : Ukrainian
Service kind : Complete Main
Default : No
Forced : No

Audio #3
ID : 4
Format : DTS
Format/Info : Digital Theater Systems
Format profile : MA / Core
Mode : 16
Format settings, Endianness : Big
Codec ID : A_DTS
Duration : 1 h 44 min
Bit rate mode : Variable / Constant
Bit rate : 4 044 kb/s / 1 509 kb/s
Channel(s) : 6 channels
Channel positions : Front: L C R, Side: L R, LFE
Sampling rate : 48.0 kHz
Frame rate : 93.750 FPS (512 SPF)
Bit depth : 24 bits
Compression mode : Lossless / Lossy
Stream size : 2.96 GiB (8%)
Title : [MVO] DTS-HD MA 5.1 @ 4044 kbps (Omikron)
Language : Russian
Default : No
Forced : No

Audio #4
ID : 5
Format : DTS
Format/Info : Digital Theater Systems
Format profile : MA / Core
Mode : 16
Format settings, Endianness : Big
Codec ID : A_DTS
Duration : 1 h 44 min
Bit rate mode : Variable / Constant
Bit rate : 4 018 kb/s / 1 509 kb/s
Channel(s) : 6 channels
Channel positions : Front: L C R, Side: L R, LFE
Sampling rate : 48.0 kHz
Frame rate : 93.750 FPS (512 SPF)
Bit depth : 24 bits
Compression mode : Lossless / Lossy
Stream size : 2.95 GiB (8%)
Title : [VO] DTS-HD MA 5.1 @ 4019 kbps (V.Gorchakov)
Language : Russian
Default : No
Forced : No

Audio #5
ID : 6
Format : DTS
Format/Info : Digital Theater Systems
Format profile : MA / Core
Mode : 16
Format settings, Endianness : Big
Codec ID : A_DTS
Duration : 1 h 44 min
Bit rate mode : Variable / Constant
Bit rate : 4 024 kb/s / 1 509 kb/s
Channel(s) : 6 channels
Channel positions : Front: L C R, Side: L R, LFE
Sampling rate : 48.0 kHz
Frame rate : 93.750 FPS (512 SPF)
Bit depth : 24 bits
Compression mode : Lossless / Lossy
Stream size : 2.95 GiB (8%)
Title : [VO] DTS-HD MA 5.1 @ 4025 kbps (Y.Zhyvov)
Language : Russian
Default : No
Forced : No

Audio #6
ID : 7
Format : DTS
Format/Info : Digital Theater Systems
Format profile : MA / Core
Mode : 16
Format settings, Endianness : Big
Codec ID : A_DTS
Duration : 1 h 44 min
Bit rate mode : Variable / Constant
Bit rate : 4 008 kb/s / 1 509 kb/s
Channel(s) : 6 channels
Channel positions : Front: L C R, Side: L R, LFE
Sampling rate : 48.0 kHz
Frame rate : 93.750 FPS (512 SPF)
Bit depth : 24 bits
Compression mode : Lossless / Lossy
Stream size : 2.94 GiB (8%)
Title : [ORIGINAL] DTS-HD MA 5.1 @ 4008 kbps
Language : English
Default : No
Forced : No

Audio #7
ID : 8
Format : AC-3
Format/Info : Audio Coding 3
Format settings, Endianness : Big
Codec ID : A_AC3
Duration : 1 h 44 min
Bit rate mode : Constant
Bit rate : 224 kb/s
Channel(s) : 2 channels
Channel positions : Front: L R
Sampling rate : 48.0 kHz
Frame rate : 31.250 FPS (1536 SPF)
Bit depth : 16 bits
Compression mode : Lossy
Stream size : 168 MiB (0%)
Title : Commentary #1 (Director)
Language : English
Service kind : Complete Main
Default : No
Forced : No

Audio #8
ID : 9
Format : AC-3
Format/Info : Audio Coding 3
Format settings, Endianness : Big
Codec ID : A_AC3
Duration : 1 h 44 min
Bit rate mode : Constant
Bit rate : 224 kb/s
Channel(s) : 2 channels
Channel positions : Front: L R
Sampling rate : 48.0 kHz
Frame rate : 31.250 FPS (1536 SPF)
Bit depth : 16 bits
Compression mode : Lossy
Stream size : 168 MiB (0%)
Title : Commentary #2 (Writers)
Language : English
Service kind : Complete Main
Default : No
Forced : No

Text #1
ID : 10
Format : PGS
Codec ID : S_HDMV/PGS
Codec ID/Info : Picture based subtitle format used on BDs/HD-DVDs
Duration : 1 h 41 min
Bit rate : 19.5 kb/s
Count of elements : 1658
Stream size : 14.2 MiB (0%)
Title : Full-length
Language : Russian
Default : No
Forced : No

Text #2
ID : 11
Format : PGS
Codec ID : S_HDMV/PGS
Codec ID/Info : Picture based subtitle format used on BDs/HD-DVDs
Duration : 1 h 41 min
Bit rate : 19.7 kb/s
Count of elements : 1666
Stream size : 14.3 MiB (0%)
Title : Full-length
Language : Ukrainian
Default : No
Forced : No

Text #3
ID : 12
Format : PGS
Codec ID : S_HDMV/PGS
Codec ID/Info : Picture based subtitle format used on BDs/HD-DVDs
Duration : 1 h 43 min
Bit rate : 24.5 kb/s
Count of elements : 2076
Stream size : 18.1 MiB (0%)
Title : Full-length
Language : English
Default : No
Forced : No

Text #4
ID : 13
Format : PGS
Codec ID : S_HDMV/PGS
Codec ID/Info : Picture based subtitle format used on BDs/HD-DVDs
Duration : 1 h 44 min
Bit rate : 48.8 kb/s
Count of elements : 2808
Stream size : 36.4 MiB (0%)
Title : Commentary #1 (Director)
Language : Russian
Default : No
Forced : No

Text #5
ID : 14
Format : PGS
Codec ID : S_HDMV/PGS
Codec ID/Info : Picture based subtitle format used on BDs/HD-DVDs
Duration : 1 h 44 min
Bit rate : 61.5 kb/s
Count of elements : 3410
Stream size : 46.1 MiB (0%)
Title : Commentary #2 (Writers)
Language : Russian
Default : No
Forced : No

Text #6
ID : 15
Format : PGS
Codec ID : S_HDMV/PGS
Codec ID/Info : Picture based subtitle format used on BDs/HD-DVDs
Duration : 36 min 13 s
Bit rate : 701 b/s
Count of elements : 24
Stream size : 186 KiB (0%)
Title : Forced
Language : Russian
Default : Yes
Forced : Yes

Menu
00:00:00.000 : en:Chapter 1
00:05:24.407 : en:Chapter 2
00:09:17.974 : en:Chapter 3
00:14:19.066 : en:Chapter 4
00:18:07.544 : en:Chapter 5
00:20:03.785 : en:Chapter 6
00:22:38.148 : en:Chapter 7
00:25:17.015 : en:Chapter 8
00:29:42.655 : en:Chapter 9
00:33:38.266 : en:Chapter 10
00:38:29.098 : en:Chapter 11
00:41:12.595 : en:Chapter 12
00:45:19.007 : en:Chapter 13
00:48:50.177 : en:Chapter 14
00:52:56.631 : en:Chapter 15
00:57:30.280 : en:Chapter 16
00:59:26.729 : en:Chapter 17
01:01:30.144 : en:Chapter 18
01:05:03.608 : en:Chapter 19
01:06:20.267 : en:Chapter 20
01:09:34.962 : en:Chapter 21
01:11:15.688 : en:Chapter 22
01:15:44.122 : en:Chapter 23
01:18:29.204 : en:Chapter 24
01:23:09.275 : en:Chapter 25
01:27:50.390 : en:Chapter 26
01:33:00.366 : en:Chapter 27
01:37:08.948 : en:Chapter 28

Для просмотра HDR-контента необходим телевизор с поддержкой HDR. Просто запишите на usb-накопитель скачанное видео и установите его в ваш ТВ. На обычных дисплеях изображение будет выглядеть неконтрастным и обесцвеченным.

Решение этой проблемы в настоящий момент возможно на PC под ОС Windows, используя плейер, который поддерживает вывод изображение через рендер madvr (http://madvr.com), который может выполнять программную конверсию в цветовое пространство и гамму REC.709.

Я рекомендую PotPlayer или Media Player Classic Home Cinema .

После установки рекомендованных плейеров необходимо отдельно установить madvr. Для этого скачайте архив, распакуйте его в удобное место и запустите install.bat от учетной записи администратора. После установки папку с содержимым не удалять! Если папку необходимо перенести в другое место, то после переноса необходимо снова запустить install.bat.
Для того, чтобы изображение выводилось посредством madvr, его необходимо выбрать в настройках плейера:






Чтобы попасть в настройки madvr можно запустить madHcCtrl.exe из папки с установленной программой. В трее появится значок, кликнув ПКМ по которому выберите edit madvr settings. В potplayer вызов настроек возможен нажатием на … справа от выбранного madshi video renderer. Также значок будет появляться каждый раз при проигрывании видео.

Фильм работает на ура, проверено - Samsung UBD-K8500 4K Ultra HD Blu-ray (плеер), Monster ISF Advanced Ultra-High Speed HDMI Cable w/ Ethernet 24K Gold Plated (UHD кабель), Sony KD-79X9005B (ТВ)!!
pb.wtf



Скачать Восстание планеты обезьян через торрент http://d.radikal.ru/d31/1712/25/cb1f981598e6.jpg Скачать фильм Восстание планеты обезьян через торрент бесплантно в хорошем качестве Описание: Молодой ученый испытывает на обезьянах новое лекарство от болезни Альцгеймера. У препарата обнаруживается удивительный побочный ... 10 10 5
Торрент: Зарегистрирован [2017-12-29 15:29] · скачан: 29 раз
Статус: √ проверено
Размер: 38.8 GB
Как cкачать? Как скачать Восстание планеты обезьян через торрент | UTorrent

% Раздел Тема Автор DL S | L
Фильмы [HD 720p, 1080p] (Хороший звук DUB, MVO) [ 7.26 GB ] Восстание планеты обезьян / Rise of the Planet of the Apes [2011 BDRip 720p] diletant Скачать
1 | 0
Фильмы 2011 [ 2.18 GB ] Восстание планеты обезьян / Rise of the Planet of the Apes [2011 BDRip] DUB Ворон Скачать
1 | 0
Фильмы [HD 720p, 1080p] (Хороший звук DUB, MVO) [ 14.29 GB ] Восстание планеты обезьян / Rise of the Planet of the Apes [2011 BDRip 1080p MVO] Артронах Скачать
1 | 0
Фильмы с авторской озвучкой [ 2.19 GB ] Восстание планеты обезьян / Rise of the Planet of the Apes [2011 BDRip] 2x[AVO] killermax2013 Скачать
1 | 0
Фильмы (Blu-ray, BD-Remux, HDDVD) [ 25.71 GB ] Восстание планеты обезьян / Rise of the Planet of the Apes [2011 BDRemux DUB ] Зайчина Скачать
1 | 0
Фильмы 2011 [ 1.47 GB ] Восстание планеты обезьян / Rise of the Planet of the Apes [2011 BDRip] coc900 Скачать
1 | 0
Фильмы 2011 [ 2.18 GB ] Восстание планеты обезьян / Rise of the Planet of the Apes [2011 BDRip-AVC] MVO + Subs + Original Eng Mr. Freeman Скачать
1 | 0

28-11-2019 20:33  

Отключить всю рекламу на сайте

    Дорогой пользователь! Огромная просьба, поблагодарите релизера, оцените раздачу и оставьте свои комментарий, если Вы скачали Восстание планеты обезьян через торрент бесплатно! Внесите свою лепту в развитие PiratBit!
    Комментировать посты могут только пользователи прошедшие не сложную регистрацию
    Показать сообщения:    

    Восстание планеты обезьян через торрент
    Скачать бесплатно Восстание планеты обезьян
    Восстание планеты обезьян скачать торрент
    Восстание планеты обезьян смотреть онлайн
    Cкачать фильм Восстание планеты обезьян бесплатно
    Восстание планеты обезьян скачать торрент в хорошем качестве
    Восстание планеты обезьян смотреть онлайн бесплатно в хорошем качестве


    Вы не можете начинать темы
    Вы не можете отвечать на сообщения
    Вы не можете редактировать свои сообщения
    Вы не можете удалять свои сообщения
    Вы не можете голосовать в опросах
    Вы не можете прикреплять файлы к сообщениям
    Вы можете скачивать файлы