Мега распродажа FORZA HORIZON 4 ULTIMATE+ВСЕ DLC+ОНЛАЙН всего за 499р. 349 руб. (супер цена). Внимание количество ограничено!!!

iTunes

1+1

iTunes

мы

iTunes

1

1 сезон

Чернобыль

1 сезон

Ральф против интернета

Лицензия

ПШазам

8 сезон

Игра престолов

Лицензия

30
pack

ВАЖНО

!!Акция!!

Alien_RageХит недели

RePack

Resident Evil 21

ИГРА 18+

pack

RePack

Metro:Exodus

!!Акция!!

Alien_Rage

RePack

fifa19

RePack

Assassins Creed: Odyssey

RePack

NEED FOR SPEED™ PAYBACK

3 сезон

9 сезон

Бесстыжие 9 сезон

Все сериалы

все сериалы на PB.wtf

RePack

FAR CRY 5
Ребята, катастрофически не хватает 2730р. для оплаты серверов за ИЮНЬ (всвязи с блокировками трафик упал в 3 раза), 1-2р., выручайте.
  

Американское сердце / American Heart (Мартин Белл) [1992 г., драма, мелодрама, криминал, WEB-DLRip] MVO pb.wtf

Американское сердце через торрент pb.wtf

Размер: 1.45 GB | Добавлен: 1 год 6 мес. назад | Торрент скачан:13 раз
Скачать  

29-12-2017 16:45 Американское сердце Скачать торрент  

Американское сердце / American Heart
Год выпуска: 1992
Страна: США
Жанр: драма, мелодрама, криминал
Продолжительность: 01:55:08
Перевод: Профессиональный многоголосый (ТВЦ)
Тип релиза: Amazon

Режиссер: Мартин Белл

rating

В ролях: Джефф Бриджес, Эдвард Ферлон, Джон Бойлэн, Грег Севиньи, Джэйн Энтвистл, Уилли Уильямс, Рузвельт Франклин, Мелвин Хейярд, Дон Харви, Кит МакДонаф

Описание: Жесткая и мрачная история о вышедшем из тюрьмы преступнике, решившем «завязать». Он должен выдержать испытательный срок, и единственная работа, которую ему удается найти — это мойка стекол. В тюрьме он переписывался с девушкой через рубрику «Американское сердце» — для тех, кто отбывает наказание. Он встречается с ней и вместе с сыном пытается наладить нормальную жизнь

Качество: WEB-DLRip
Формат: AVI
Видео: XviD, 1602 Кбит/с, 720x400, 23.976 кадр/с
Аудио: AC3, 2 ch, 192 Кбит/с
Релиз от: Koenig
скриншот   скриншот   скриншот   скриншот   скриншот   скриншот  

Общее
Полное имя : American.Heart.1992.WEB-DLRip.avi
Формат : AVI
Формат/Информация : Audio Video Interleave
Размер файла : 1,45 Гбайт
Продолжительность : 1 ч. 55 м.
Общий поток : 1803 Кбит/сек
Программа кодирования : VirtualDubMod 1.5.10.2 (build 2540/release)
Библиотека кодирования : VirtualDubMod build 2540/release

Видео
Идентификатор : 0
Формат : MPEG-4 Visual
Профиль формата : Advanced Simple@L5
Параметр BVOP формата : 1
Параметр QPel формата : Нет
Параметр GMC формата : Без точки перехода
Параметр матрицы формата : Выборочная
Идентификатор кодека : XVID
Идентификатор кодека/Подсказка : XviD
Продолжительность : 1 ч. 55 м.
Битрейт : 1602 Кбит/сек
Ширина : 720 пикселей
Высота : 400 пикселей
Соотношение сторон : 16:9
Частота кадров : 23,976 (24000/1001) кадра/сек
Цветовое пространство : YUV
Субдискретизация насыщенности : 4:2:0
Битовая глубина : 8 бит
Тип развёртки : Прогрессивная
Метод сжатия : С потерями
Бит/(Пиксели*Кадры) : 0.232
Размер потока : 1,29 Гбайт (89%)
Библиотека кодирования : XviD 65

Аудио
Идентификатор : 1
Формат : AC-3
Формат/Информация : Audio Coding 3
Параметр Endianness формата : Big
Идентификатор кодека : 2000
Продолжительность : 1 ч. 55 м.
Вид битрейта : Постоянный
Битрейт : 192 Кбит/сек
Каналы : 2 канала
Расположение каналов : Front: L R
Частота : 48,0 КГц
Частота кадров : 31,250 кадров/сек (1536 spf)
Битовая глубина : 16 бит
Метод сжатия : С потерями
Размер потока : 158 Мбайт (11%)
Выравнивание : Разделение по промежуткам
Продолжительность промежутка : 42 мс. (1,00 видеокадр)
Время предзагрузки промежутка : 500 мс.
ServiceKind/String : Complete Main

pb.wtf



Скачать Американское сердце через торрент http://pic1.kartinco.top/images/11/4hmr8.jpg Скачать фильм Американское сердце через торрент бесплантно в хорошем качестве Описание: Жесткая и мрачная история о вышедшем из тюрьмы преступнике, решившем «завязать». Он должен выдержать испытательный срок, и ... 10 10 2
Info! Золотая раздача, скачанное не засчитывается.
Торрент: Зарегистрирован [2017-12-29 16:45] · скачан: 13 раз
Статус: √ проверено
Размер: 1.45 GB
Как cкачать? Как скачать Американское сердце через торрент | qTorrent


>> Регистрируемся здесь <<






Отзывы и комментарии о схеме читаем и пишем здесь: ---> Отзывы и комментарии о схеме

Новые благодарочки в телеграм довольных пользователей:
скриншот   скриншот   скриншот   скриншот   скриншот

14-01-2018 10:32 Американское сердце Скачать торрент  

Очень сильная драма, прекрасный сценарий, мощная игра Бриджесса, не менее удачное исполнение других ролей, очень хорошие съемки, воссоздание атмосферы времени- одежда, прически, машины- высокий класс. Произведение в духе Стейнбека и Селинджера. Всем любителям хорошего кино от 13 и старше будет интересно. Качество рипа очень хорошее, рекламы нет. Спасибо за раздачу.pb.wtf



    Дорогой пользователь! Огромная просьба, поблагодарите релизера, оцените раздачу и оставьте свои комментарий, если Вы скачали Американское сердце через торрент бесплатно! Внесите свою лепту в развитие PiratBit!
    Комментировать посты могут только пользователи прошедшие не сложную регистрацию
    Показать сообщения:    

    Американское сердце через торрент
    Скачать бесплатно Американское сердце
    Американское сердце скачать торрент
    Американское сердце смотреть онлайн
    Cкачать фильм Американское сердце бесплатно
    Американское сердце скачать торрент в хорошем качестве
    Американское сердце смотреть онлайн бесплатно в хорошем качестве


    Вы не можете начинать темы
    Вы не можете отвечать на сообщения
    Вы не можете редактировать свои сообщения
    Вы не можете удалять свои сообщения
    Вы не можете голосовать в опросах
    Вы не можете прикреплять файлы к сообщениям
    Вы можете скачивать файлы