Ссылка на приватное зеркало нашего сайта всего за 1$. Внимание количество ограничено!!!

2 сезон

iTunes

1 сезон

1

2 сезон

2 сезон

iTunes

1 сезон

RePack

30

Ultimate

ВАЖНО

ИГРА 18+

pack

RePack

MK11
pack

Забери бонус

RePack

jed

!!Акция!!

Alien_Rage

RePack

fifa19

RePack

Assassins Creed: Odyssey

RePack

NEED FOR SPEED™ PAYBACK

4 сезон

9 сезон

Бесстыжие 9 сезон

Все сериалы

все сериалы на PB.wtf

RePack

FAR CRY 5
  

Тайна 7 сестер / Seven Sisters (Томми Виркола) [2017, Фантастика, триллер, BD Remux 1080p] DUB [iTunes] pb.wtf

Тайна 7 сестер через торрент pb.wtf

Раздают: 1 [ 0 KB/s ]
Размер: 26.15 GB | Добавлен: 2 года 11 мес. назад | Торрент скачан:333 раза
Скачать  

29-12-2017 20:06 Тайна 7 сестер Скачать торрент  

Тайна 7 сестер / Seven SistersГод выпуска: 2017
Страна: Великобритания, Франция, Бельгия, США
Жанр: Фантастика, триллер
Продолжительность: 02:03:18
Перевод: Дубляж iTunes
Субтитры: английские

Режиссер: Томми Виркола

rating

В ролях:

Нуми Рапас, Марван Кензари, Уиллем Дефо, Роберт Вагнер, Гленн Клоуз, Лара Дэкаро, Пол Сверре Валхейм Хаген, Адетомива Едун, Кристиан Рубек

Описание:

В мире, где семейным парам разрешено иметь только одного ребенка, рождается семь сестер-близняшек. Родители решают сохранить всех и дают малышкам имена в честь дней недели. Так девочки и появляются на людях — каждая в свой день. Но однажды Понедельник пропадает…

Качество: BD Remux 1080p
Формат: MKV
Видео кодек: H.264
Аудио кодек: AC3/DTS

Видео: MPEG-4 AVC, 1920x1080, 27.6 Mbit/s, 24.000 fps
Аудио#1: 48 kHz, AC3, 5.1, 384 Kbps | Дублированный | iTunes | RUS |RUS |
Аудио#2: 48 kHz, DTS-HD MA, 5.1, 2375 Kbps | Оригинал | ENG |


Релиз от:
скриншот   скриншот   скриншот   скриншот   скриншот  

General
Unique ID : 278458170691023499316189423316822356439 (0xD17D17C98F645B12E3305C8687AF71D7)
Complete name : G:VideoSSDWhat.Happened.to.Monday.2017.BDREMUX.1080p.ExKinoRay.mkv
Format : Matroska
Format version : Version 4 / Version 2
File size : 26.2 GiB
Duration : 2 h 3 min
Overall bit rate mode : Variable
Overall bit rate : 30.4 Mb/s
Movie name : What Happened to Monday 2017 from ExKinoRay
Encoded date : UTC 2017-12-29 19:38:47
Writing application : mkvmerge v19.0.0 ('Brave Captain') 64-bit
Writing library : libebml v1.3.5 + libmatroska v1.4.8

Video
ID : 1
Format : AVC
Format/Info : Advanced Video Codec
Format profile : High@L4.1
Format settings : CABAC / 2 Ref Frames
Format settings, CABAC : Yes
Format settings, ReFrames : 2 frames
Codec ID : V_MPEG4/ISO/AVC
Duration : 2 h 3 min
Bit rate mode : Variable
Bit rate : 27.6 Mb/s
Width : 1 920 pixels
Height : 1 080 pixels
Display aspect ratio : 16:9
Frame rate mode : Constant
Frame rate : 24.000 FPS
Color space : YUV
Chroma subsampling : 4:2:0
Bit depth : 8 bits
Scan type : Progressive
Bits/(Pixel*Frame) : 0.555
Stream size : 23.8 GiB (91%)
Language : English
Default : Yes
Forced : No

Audio #1
ID : 2
Format : AC-3
Format/Info : Audio Coding 3
Codec ID : A_AC3
Duration : 2 h 3 min
Bit rate mode : Constant
Bit rate : 384 kb/s
Channel(s) : 6 channels
Channel positions : Front: L C R, Side: L R, LFE
Sampling rate : 48.0 kHz
Frame rate : 31.250 FPS (1536 SPF)
Bit depth : 16 bits
Compression mode : Lossy
Stream size : 339 MiB (1%)
Title : iTunes
Language : Russian
Service kind : Complete Main
Default : Yes
Forced : No

Audio #2
ID : 3
Format : DTS
Format/Info : Digital Theater Systems
Format profile : MA / Core
Codec ID : A_DTS
Duration : 2 h 3 min
Bit rate mode : Variable / Constant
Bit rate : 2 375 kb/s / 1 509 kb/s
Channel(s) : 6 channels
Channel positions : Front: L C R, Side: L R, LFE
Sampling rate : 48.0 kHz
Frame rate : 93.750 FPS (512 SPF)
Bit depth : 16 bits
Compression mode : Lossless / Lossy
Stream size : 2.05 GiB (8%)
Title : Original
Language : English
Default : No
Forced : No

Text
ID : 4
Format : UTF-8
Codec ID : S_TEXT/UTF8
Codec ID/Info : UTF-8 Plain Text
Duration : 1 h 56 min
Bit rate : 33 b/s
Count of elements : 903
Stream size : 28.5 KiB (0%)
Title : Full
Language : English
Default : No
Forced : No

Menu
00:00:00.000 : en: Chapter 1
00:09:13.667 : en: Chapter 2
00:20:16.792 : en: Chapter 3
00:29:12.333 : en: Chapter 4
00:40:32.000 : en: Chapter 5
00:51:51.750 : en: Chapter 6
00:58:04.792 : en: Chapter 7
01:14:19.833 : en: Chapter 8
01:22:25.000 : en: Chapter 9
01:32:37.958 : en: Chapter 10
01:42:29.792 : en: Chapter 11
01:49:55.875 : en: Chapter 12

pb.wtf



Скачать Тайна 7 сестер через торрент http://img12.lostpic.net/2017/12/29/5fd10ba18602763b4e132f68a4bd0695.jpg Скачать фильм Тайна 7 сестер через торрент бесплантно в хорошем качестве Описание: В мире, где семейным парам разрешено иметь только одного ребенка, рождается семь сестер-близняшек. Родители решают сохранить всех ... 10 10 8
Info! Золотая раздача, скачанное не засчитывается.
Торрент: Зарегистрирован [2017-12-29 20:06] · скачан: 333 раз
Статус: √ проверено
Размер: 26.15 GB
Как cкачать? Как скачать Тайна 7 сестер через торрент | qTorrent

% Раздел Тема Автор DL S | L
Фильмы [HD 720p, 1080p] (Хороший звук DUB, MVO) [ 10.18 GB ] Тайна 7 сестер / Seven Sisters [2017 BDRip 720p] AVO [Живов] +DUB [ Blu-ray RUS] bober100 Скачать
1 | 0
Фильмы [HD 720p, 1080p] (Хороший звук DUB, MVO) [ 16.56 GB ] Тайна 7 сестер / Seven Sisters [2017 BDRip 1080p] AVO [Живов] +DUB [ Blu-ray RUS] bober100 Скачать
1 | 0
Фильмы 2017 [DVDrip, WEB-DLRip, HDrip] (DUB, MVO) [ 1.46 GB ] Тайна 7 сестер / Seven Sisters [2017 BDRip] - [] Twi7ter Скачать
3 | 0
Фильмы (Blu-ray, BD-Remux, HDDVD) [ 22.76 GB ] Тайна 7 сестер / Seven Sisters [2017 Blu-Ray 1080p] - [] [RUS Transfer] sheker187 Скачать
1 | 0
Ultra HD (UHD: 2K, 4K, 8K) — видео сверхвысокой чёткости [ 71.57 GB ] Тайна 7 сестер / Seven Sisters [2017 UHD BDRemux 2160p] DUB + AVO sheker187 Скачать
1 | 0
Фильмы 2017 [DVDrip, WEB-DLRip, HDrip] (DUB, MVO) [ 743 MB ] Тайна 7 сестер / Seven Sisters [2017 BDRip-AVC] DUB [] bober100 Скачать
1 | 0
Фильмы 2017 [DVDrip, WEB-DLRip, HDrip] (DUB, MVO) [ 2.38 GB ] Тайна 7 сестер / Seven Sisters [2017 BDRip-AVC] AVO [Живов] - ExKinoRay Enigma2010 Скачать
3 | 0

28-11-2019 20:33  

Отключить всю рекламу на сайте

12-01-2018 15:28 Тайна 7 сестер Скачать торрент  

Фильм Супер!!! Всем к просмотру!pb.wtf



    Дорогой пользователь! Огромная просьба, поблагодарите релизера, оцените раздачу и оставьте свои комментарий, если Вы скачали Тайна 7 сестер через торрент бесплатно! Внесите свою лепту в развитие PiratBit!
    Комментировать посты могут только пользователи прошедшие не сложную регистрацию
    Показать сообщения:    

    Тайна 7 сестер через торрент
    Скачать бесплатно Тайна 7 сестер
    Тайна 7 сестер скачать торрент
    Тайна 7 сестер смотреть онлайн
    Cкачать фильм Тайна 7 сестер бесплатно
    Тайна 7 сестер скачать торрент в хорошем качестве
    Тайна 7 сестер смотреть онлайн бесплатно в хорошем качестве


    Вы не можете начинать темы
    Вы не можете отвечать на сообщения
    Вы не можете редактировать свои сообщения
    Вы не можете удалять свои сообщения
    Вы не можете голосовать в опросах
    Вы не можете прикреплять файлы к сообщениям
    Вы можете скачивать файлы