Доктор Стрэндж

Лицензия

Добыча

Дубляж

Дом дракона

1 сезон

Тор

Дубляж

В эфире

Дубляж

Там, где раки поют

MVO

Властелин колец

1 сезон

GLOBAL

pack

Рекомендуем

30

Пиратка

ВАЖНО

ВАЖНО

Ghostwire

Пиратка

jed

RePack

nioh2

RePack

RDR2

RePack

NEED FOR SPEED™ PAYBACK

RePack

скачать торрент

Кинопоиск HD

Острые козырьки 6 сезон

6 сезон

FAR CRY 6

RePack

скачать торрент

Лицензия

скачать торрент

MVO

1

1 сезон

скачать торрент

1 сезон

скачать торрент

Лицензия

  

Дыши ради нас / Breathe (Энди Серкис) [2017, Драма, мелодрама, биография, BD Remux 1080p] Дубляж [iTunes]

Дыши ради нас через торрент pb.wtf

Размер: 30.56 GB | Добавлен: 4 года 11 мес. назад | Торрент скачан:38 раз
Смотреть онлайн | Скачать   

30-12-2017 02:25 Дыши ради нас Скачать торрент  

Дыши ради нас / BreatheГод выпуска: 2017
Страна: Великобритания
Жанр: Драма, мелодрама, биография
Продолжительность: 01:58:07
Перевод: Дублированный | iTunes
Субтитры: отсутствуют

Режиссер: Энди Серкис

rating

В ролях:

Эндрю Гарфилд, Клер Фой, Эдвард Спелирс, Том Холландер, Дэвид Батлер, Бен Ллойд-Хьюз, Миранда Рэйсон, Камилла Разерфорд, Андре Джейкобс, Терри Нортон

Описание:

Его манеры, настойчивость и великолепное чувство юмора с первого взгляда покорили неприступную Диану. После свадьбы молодожены отправляются в путешествие, где Робин тяжело заболевает. И теперь только любовь способна подарить ему вторую жизнь...

Качество: BD Remux 1080p
Формат: MKV
Видео кодек: H.264
Аудио кодек: AC3/DTS

Видео: MPEG-4 AVC, 1920x1080, 33.1 Мbit/s, 23.976 fps
Аудио#1: 48 kHz, AC3, 5.1, 384 Kbps | Дублированный | iTunes | RUS |
Аудио#2: 48 kHz, DTS-HD MA, 5.1, 3529 Kbps | Оригинал | ENG |


Релиз от:
скриншот   скриншот   скриншот   скриншот   скриншот  

General
Unique ID : 249855002733426040715531705800958539763 (0xBBF852BA15A9C1A58EE140E7DE71F7F3)
Complete name : G:VideoSSDBreathe.2017.BDREMUX.1080p.ExKinoRay.mkv
Format : Matroska
Format version : Version 4 / Version 2
File size : 30.6 GiB
Duration : 1 h 58 min
Overall bit rate mode : Variable
Overall bit rate : 37.0 Mb/s
Movie name : Breathe 2017 from ExKinoRay
Encoded date : UTC 2017-12-29 23:16:23
Writing application : mkvmerge v19.0.0 ('Brave Captain') 64-bit
Writing library : libebml v1.3.5 + libmatroska v1.4.8

Video
ID : 1
Format : AVC
Format/Info : Advanced Video Codec
Format profile : [email protected]
Format settings : CABAC / 4 Ref Frames
Format settings, CABAC : Yes
Format settings, ReFrames : 4 frames
Codec ID : V_MPEG4/ISO/AVC
Duration : 1 h 58 min
Bit rate mode : Variable
Bit rate : 33.1 Mb/s
Maximum bit rate : 39.0 Mb/s
Width : 1 920 pixels
Height : 1 080 pixels
Display aspect ratio : 16:9
Frame rate mode : Constant
Frame rate : 23.976 (24000/1001) FPS
Color space : YUV
Chroma subsampling : 4:2:0
Bit depth : 8 bits
Scan type : Progressive
Bits/(Pixel*Frame) : 0.666
Stream size : 27.3 GiB (89%)
Language : English
Default : Yes
Forced : No

Audio #1
ID : 2
Format : AC-3
Format/Info : Audio Coding 3
Codec ID : A_AC3
Duration : 1 h 58 min
Bit rate mode : Constant
Bit rate : 384 kb/s
Channel(s) : 6 channels
Channel positions : Front: L C R, Side: L R, LFE
Sampling rate : 48.0 kHz
Frame rate : 31.250 FPS (1536 SPF)
Bit depth : 16 bits
Compression mode : Lossy
Stream size : 324 MiB (1%)
Title : iTunes
Language : Russian
Service kind : Complete Main
Default : Yes
Forced : No

Audio #2
ID : 3
Format : DTS
Format/Info : Digital Theater Systems
Format profile : MA / Core
Codec ID : A_DTS
Duration : 1 h 58 min
Bit rate mode : Variable / Constant
Bit rate : 3 529 kb/s / 1 509 kb/s
Channel(s) : 6 channels
Channel positions : Front: L C R, Side: L R, LFE
Sampling rate : 48.0 kHz
Frame rate : 93.750 FPS (512 SPF)
Bit depth : 24 bits
Compression mode : Lossless / Lossy
Stream size : 2.91 GiB (10%)
Title : Original
Language : English
Default : No
Forced : No

Menu
00:00:00.000 : en:Chapter 1
00:05:38.505 : en:Chapter 2
00:10:44.227 : en:Chapter 3
00:14:52.433 : en:Chapter 4
00:20:01.867 : en:Chapter 5
00:24:32.262 : en:Chapter 6
00:29:11.959 : en:Chapter 7
00:37:35.086 : en:Chapter 8
00:44:13.484 : en:Chapter 9
00:49:16.620 : en:Chapter 10
00:55:11.725 : en:Chapter 11
01:01:52.417 : en:Chapter 12
01:07:52.068 : en:Chapter 13
01:14:14.408 : en:Chapter 14
01:19:17.795 : en:Chapter 15
01:25:04.433 : en:Chapter 16
01:30:10.030 : en:Chapter 17
01:36:56.144 : en:Chapter 18
01:43:43.217 : en:Chapter 19
01:53:00.107 : en:Chapter 20




Скачать Дыши ради нас через торрент http://img12.lostpic.net/2017/12/30/77ac89e7cd1c4d03967fda401fd3353e.jpg Скачать, смотреть онлайн Дыши ради нас бесплантно в хорошем качестве Описание: Его манеры, настойчивость и великолепное чувство юмора с первого взгляда покорили неприступную Диану. После свадьбы молодожены ... 10 10 4
Info! Золотая раздача, скачанное не засчитывается.
Торрент: Зарегистрирован [2017-12-30 02:25] · скачан: 38 раз
Статус: √ проверено
Размер: 30.56 GB
Как cкачать? Как скачать Дыши ради нас через торрент | UTorrent

% Раздел Тема Автор DL S | L
Фильмы 2017 [DVDrip, WEB-DLRip, HDrip] (DUB, MVO) [ 746 MB ] Дыши ради нас / Breathe | iTunes | BDRip bober100 Скачать
1 | 0
Фильмы [HD 720p, 1080p] (Хороший звук DUB, MVO) [ 10.79 GB ] Дыши ради нас / Breathe | iTunes | 1080p bober100 Скачать
2 | 0
Фильмы [HD 720p, 1080p] (Хороший звук DUB, MVO) [ 6.07 GB ] Дыши ради нас / Breathe | iTunes | 720p bober100 Скачать
1 | 0
Фильмы 2017 [DVDrip, WEB-DLRip, HDrip] (DUB, MVO) [ 1.41 GB ] Дыши ради нас / Breathe | iTunes | BDRip bober100 Скачать
1 | 0

28-11-2019 20:33  


Отключить вcю реклaмy на сайте, в т.ч. и в плеере онлайн просмотра!

    Дорогой пользователь! Огромная просьба, поблагодарите релизера, оцените раздачу и оставьте свои комментарий, если Вы скачали Дыши ради нас через торрент бесплатно!!
    Комментировать посты могут только пользователи прошедшие не сложную регистрацию
    Показать сообщения:    


    Дыши ради нас через торрент
    Скачать бесплатно Дыши ради нас
    Дыши ради нас скачать торрент
    Дыши ради нас смотреть онлайн
    Cкачать фильм Дыши ради нас бесплатно
    Дыши ради нас скачать торрент в хорошем качестве
    Дыши ради нас смотреть онлайн бесплатно в хорошем качестве
    Вы не можете начинать темы
    Вы не можете отвечать на сообщения
    Вы не можете редактировать свои сообщения
    Вы не можете удалять свои сообщения
    Вы не можете голосовать в опросах
    Вы не можете прикреплять файлы к сообщениям
    Вы можете скачивать файлы
    Дыши ради нас / Breathe [2017, Драма, мелодрама, биография, BD Remux 1080p] Дубляж [iTunes] смотреть онлайн, скачать торрент picoco.icu