2 сезон

iTunes

MVO

1

2 сезон

iTunes

iTunes

1 сезон

RePack

30

Новинка

ВАЖНО

ИГРА 18+

pack

RePack

MK11
pack

Легкие деньги

RePack

jed

RePack

fifa19

RePack

RDR2

RePack

NEED FOR SPEED™ PAYBACK

4 сезон

9 сезон

Бесстыжие 9 сезон

Все сериалы

все сериалы на PB.wtf

RePack

FAR CRY 5

Anonymous, доброй ночи, мы не успеваем собрать деньги на оплату серверов за декабрь и январь, помогите нам пожалуйста в это трудное время. В качестве благодарности мы отключим Вам всю рекламу на сайте (укажите свой ник в строку Ваше имя)!

×
  
Magnet ссылка

Ноябрьские преступники / November Criminals (Саша Джерваси) [2017 г., Драма, криминал, детектив, HDRip-AVC] MVO [Лицензия] pb.wtf

Ноябрьские преступники через торрент pb.wtf

Размер: 1.46 GB | Добавлен: 3 года назад | Торрент скачан:306 раз
Скачать  

30-12-2017 08:02 Ноябрьские преступники Скачать торрент  

Ноябрьские преступники / November Criminals Год выпуска: 2017
Страна: США
Производство: Black Bicycle Entertainment, Indian Paintbrush, Lotus Entertainment (II)
Жанр: Драма, криминал, детектив
Продолжительность: 01:25:54
Перевод: Профессиональный (многоголосый, закадровый)
Субтитры: Отсутствуют

Режиссёр: Саша Джерваси
В ролях: Энсел Элгорт, Хлоя Грейс Морец, Кэтрин Кинер, Дэвид Стрэтэйрн, Кори Хардрикт, Терри Кинни, Дэн Флаэрти, Тесса Альбертсон, Виктор Уильямс, Элли Маршалл

Описание: 18-летний Эддисон распространяет в школе наркотики, оскорбляет учителей, зло шутит надо всеми. Но когда от пули погибает его одноклассник, Эддисон берется за смелое расследование и попутно влюбляется в свою напарницу.



Качество: HDRip-AVC

Формат: MKV
Видео кодек: AVC
Аудио кодек: AС3
Видео: 1024x576 (16:9), 23.976 fps, AVC ~ 2 047 kbps avg, 0.145 bit/pixel
Аудио: AC3, 48 kHz, 6 ch, ~ 384.00 kbps avg
General
Unique ID : 200203113101791431126726566637626102037 (0x969DB7907902EA9B947D092856F29115)
Complete name : F:\Готовые торренты\November.Criminals.[2017].HDRip-AVC.[Kaztorrents].mkv
Format : Matroska
Format version : Version 2
File size : 1.46 GiB
Duration : 1 h 25 min
Overall bit rate : 2 433 kb/s
Encoded date : UTC 2017-12-30 06:00:11
Writing application : mkvmerge v7.8.0 ('River Man') 32bit built on Apr 3 2015 12:11:22
Writing library : libebml v1.3.1 + libmatroska v1.4.2

Video
ID : 1
Format : AVC
Format/Info : Advanced Video Codec
Format profile : High@L4
Format settings, CABAC : Yes
Format settings, RefFrames : 11 frames
Codec ID : V_MPEG4/ISO/AVC
Duration : 1 h 25 min
Bit rate : 2 047 kb/s
Width : 1 024 pixels
Height : 576 pixels
Display aspect ratio : 16:9
Frame rate mode : Constant
Frame rate : 23.976 (24000/1001) FPS
Color space : YUV
Chroma subsampling : 4:2:0
Bit depth : 8 bits
Scan type : Progressive
Bits/(Pixel*Frame) : 0.145
Stream size : 1.20 GiB (82%)
Writing library : x264 core 146 r2538 121396c
Encoding settings : cabac=1 / ref=11 / deblock=1:-3:-3 / analyse=0x3:0x113 / me=umh / subme=11 / psy=1 / psy_rd=1.00:0.00 / mixed_ref=1 / me_range=48 / chroma_me=1 / trellis=2 / 8x8dct=1 / cqm=0 / deadzone=21,11 / fast_pskip=0 / chroma_qp_offset=-2 / threads=6 / lookahead_threads=1 / sliced_threads=0 / nr=0 / decimate=0 / interlaced=0 / bluray_compat=0 / constrained_intra=0 / bframes=11 / b_pyramid=2 / b_adapt=2 / b_bias=0 / direct=3 / weightb=1 / open_gop=0 / weightp=2 / keyint=240 / keyint_min=23 / scenecut=40 / intra_refresh=0 / rc_lookahead=40 / rc=2pass / mbtree=0 / bitrate=2047 / ratetol=1.0 / qcomp=0.60 / qpmin=0 / qpmax=69 / qpstep=4 / cplxblur=20.0 / qblur=0.5 / vbv_maxrate=50000 / vbv_bufsize=62500 / nal_hrd=none / filler=0 / ip_ratio=1.40 / pb_ratio=1.30 / aq=1:1.10
Default : Yes
Forced : No

Audio
ID : 2
Format : AC-3
Format/Info : Audio Coding 3
Format settings, Endianness : Big
Codec ID : A_AC3
Duration : 1 h 25 min
Bit rate mode : Constant
Bit rate : 384 kb/s
Channel(s) : 6 channels
Channel positions : Front: L C R, Side: L R, LFE
Sampling rate : 48.0 kHz
Frame rate : 31.250 FPS (1536 SPF)
Bit depth : 16 bits
Compression mode : Lossy
Stream size : 236 MiB (16%)
Service kind : Complete Main
Default : Yes
Forced : No
скриншот  скриншот  скриншот  
pb.wtf



Скачать Ноябрьские преступники через торрент http://i102.fastpic.ru/big/2017/1230/97/cc637e815fab6274170aa939bda54597.png Скачать фильм Ноябрьские преступники через торрент бесплантно в хорошем качестве Описание: 18-летний Эддисон распространяет в школе наркотики, оскорбляет учителей, зло шутит надо всеми. Но когда от пули погибает его ... 8.3 10 9
Торрент: Зарегистрирован [2017-12-30 08:02] · скачан: 306 раз
Статус: √ проверено
Размер: 1.46 GB
Как cкачать? Как скачать Ноябрьские преступники через торрент | UTorrent

% Раздел Тема Автор DL S | L
Фильмы [HD 720p, 1080p] (Хороший звук DUB, MVO) [ 9.11 GB ] Ноябрьские преступники / November Criminals [2017 BDRip 1080p] MVO [] bober100 Скачать
1 | 0
Фильмы 2017 [DVDrip, WEB-DLRip, HDrip] (DUB, MVO) [ 1.46 GB ] Ноябрьские преступники / November Criminals [2017 BDRip] MVO [] Twi7ter Скачать
1 | 0
Фильмы 2017 [DVDrip, WEB-DLRip, HDrip] (DUB, MVO) [ 1.46 GB ] Ноябрьские преступники / November Criminals [2017 HDRip многоголосый закадровый " BD EUR"] coc900 Скачать
1 | 0
Фильмы (Blu-ray, BD-Remux, HDDVD) [ 16.59 GB ] Ноябрьские преступники / November Criminals [2017 BD Remux 1080p] MVO [] bober100 Скачать
1 | 0
Фильмы 2017 [DVDrip, WEB-DLRip, HDrip] (DUB, MVO) [ 698 MB ] Ноябрьские преступники / November Criminals [2017 HDRip Профессиональное [лицензия] Sherif Скачать
1 | 0
Фильмы 2017 [DVDrip, WEB-DLRip, HDrip] (DUB, MVO) [ 1.37 GB ] Ноябрьские преступники / November Criminals [2017 HDRip Профессиональное [лицензия] Ворон Скачать
1 | 0

28-11-2019 20:33  

Отключить всю рекламу на сайте

    Дорогой пользователь! Огромная просьба, поблагодарите релизера, оцените раздачу и оставьте свои комментарий, если Вы скачали Ноябрьские преступники через торрент бесплатно! Внесите свою лепту в развитие PiratBit!
    Комментировать посты могут только пользователи прошедшие не сложную регистрацию
    Показать сообщения:    

    Ноябрьские преступники через торрент
    Скачать бесплатно Ноябрьские преступники
    Ноябрьские преступники скачать торрент
    Ноябрьские преступники смотреть онлайн
    Cкачать фильм Ноябрьские преступники бесплатно
    Ноябрьские преступники скачать торрент в хорошем качестве
    Ноябрьские преступники смотреть онлайн бесплатно в хорошем качестве


    Вы не можете начинать темы
    Вы не можете отвечать на сообщения
    Вы не можете редактировать свои сообщения
    Вы не можете удалять свои сообщения
    Вы не можете голосовать в опросах
    Вы не можете прикреплять файлы к сообщениям
    Вы можете скачивать файлы