2 сезон

iTunes

MVO

1

2 сезон

iTunes

iTunes

1 сезон

RePack

30

Ultimate

ВАЖНО

ИГРА 18+

pack

RePack

MK11
pack

Легкие деньги

RePack

jed

RePack

fifa19

RePack

RDR2

RePack

NEED FOR SPEED™ PAYBACK

4 сезон

9 сезон

Бесстыжие 9 сезон

Все сериалы

все сериалы на PB.wtf

RePack

FAR CRY 5

Anonymous, доброй ночи, мы не успеваем собрать деньги на оплату серверов за декабрь и январь, помогите нам пожалуйста в это трудное время. В качестве благодарности мы отключим Вам всю рекламу на сайте (укажите свой ник в строку Ваше имя)!

×
  
Magnet ссылка

Kingsman: Золотое кольцо / Kingsman: The Golden Circle (Мэттью Вон) [2017 г., Боевик, комедия, приключения, BDRip 1080p / 60 FPS, Dub/iTunes, Original] pb.wtf

Kingsman: Золотое кольцо через торрент pb.wtf

Размер: 16.74 GB | Добавлен: 3 года назад | Торрент скачан:1310 раз
Скачать  

30-12-2017 08:20 Kingsman: Золотое кольцо Скачать торрент  

Kingsman: Золотое кольцо / Kingsman: The Golden Circle
Год выпуска: 2017
Страна: Великобритания, США
Жанр: Боевик, комедия, приключения
Продолжительность: 02:21:02
Перевод: Дубляж/iTunes, Original
Субтитры: Русские (forced, full), английские (full)

Режиссер: Мэттью Вон

rating

В ролях: Тэрон Эджертон, Колин Фёрт, Марк Стронг, Джулианна Мур, Холли Берри, Педро Паскаль, Ченнинг Татум, Джефф Бриджес, Эдвард Холкрофт, Ханна Альстрём

Описание: Когда штаб-квартиры секретной службы Kingsman уничтожены, и весь мир оказался в заложниках у неизвестных, британские суперагенты обнаруживают, что в один день вместе с их организацией была еще создана американская разведка — Statesman. Теперь эти две элитные спецслужбы должны объединиться и бросить вызов общему безжалостному врагу, чтобы спасти мир, то есть заняться тем, что для Эггси становится обычным делом…

Качество: BDRip 1080p / 60 FPS by Tiberiumsun69
Формат: MKV
Видео кодек: H.264
Аудио кодек: AC3
Видео: AVC, 1920x804 (2.40:1), 16000 kbps, 59.94 fps , 0.173 bbp
Аудио#1: AC3, 6 ch, 48 kHz, 384 Kbps, 16 bit - DUB (itunes)
Аудио#2: DTS, 6 ch, 48 kHz, 756 Kbps, 24 bit- Original

General
Unique ID : 198651309951636042829214188349132518738 (0x9572D9C3118FAA1397634E91DA263552)
Complete name : D:\Торренты\Kingsman Золотое кольцо BDRip 1080p 60fps.mkv
Format : Matroska
Format version : Version 4 / Version 2
File size : 16.7 GiB
Duration : 2 h 21 min
Overall bit rate : 17.0 Mb/s
Movie name : Kingsman: The Golden Circle (2017) by Tiberiumsun69
Encoded date : UTC 2017-12-30 07:47:42
Writing application : mkvmerge v18.0.0 ('Apricity') 64-bit
Writing library : libebml v1.3.5 + libmatroska v1.4.8

Video
ID : 1
Format : AVC
Format/Info : Advanced Video Codec
Format profile : High@L4.2
Format settings : CABAC / 4 Ref Frames
Format settings, CABAC : Yes
Format settings, ReFrames : 4 frames
Codec ID : V_MPEG4/ISO/AVC
Duration : 2 h 21 min
Bit rate mode : Constant
Bit rate : 16.0 Mb/s
Width : 1 920 pixels
Height : 804 pixels
Display aspect ratio : 2.40:1
Frame rate mode : Constant
Frame rate : 59.940 (60000/1001) FPS
Standard : NTSC
Color space : YUV
Chroma subsampling : 4:2:0
Bit depth : 8 bits
Scan type : Progressive
Bits/(Pixel*Frame) : 0.173
Stream size : 15.6 GiB (93%)
Language : English
Default : Yes
Forced : No
Color range : Limited
Color primaries : BT.709
Transfer characteristics : BT.709
Matrix coefficients : BT.709

Audio #1
ID : 2
Format : AC-3
Format/Info : Audio Coding 3
Codec ID : A_AC3
Duration : 2 h 21 min
Bit rate mode : Constant
Bit rate : 384 kb/s
Channel(s) : 6 channels
Channel positions : Front: L C R, Side: L R, LFE
Sampling rate : 48.0 kHz
Frame rate : 31.250 FPS (1536 SPF)
Bit depth : 16 bits
Compression mode : Lossy
Stream size : 387 MiB (2%)
Title : Dub [iTunes]
Language : Russian
Service kind : Complete Main
Default : Yes
Forced : No

Audio #2
ID : 3
Format : DTS
Format/Info : Digital Theater Systems
Codec ID : A_DTS
Duration : 2 h 21 min
Bit rate mode : Constant
Bit rate : 756 kb/s
Channel(s) : 6 channels
Channel positions : Front: L C R, Side: L R, LFE
Sampling rate : 48.0 kHz
Frame rate : 93.750 FPS (512 SPF)
Bit depth : 24 bits
Compression mode : Lossy
Stream size : 763 MiB (4%)
Title : Original
Language : English
Default : No
Forced : No

Text #1
ID : 4
Format : UTF-8
Codec ID : S_TEXT/UTF8
Codec ID/Info : UTF-8 Plain Text
Duration : 2 h 19 min
Bit rate : 0 b/s
Count of elements : 14
Stream size : 418 Bytes (0%)
Title : Forced
Language : Russian
Default : Yes
Forced : No

Text #2
ID : 5
Format : UTF-8
Codec ID : S_TEXT/UTF8
Codec ID/Info : UTF-8 Plain Text
Duration : 2 h 13 min
Bit rate : 91 b/s
Count of elements : 1847
Stream size : 89.3 KiB (0%)
Title : Full
Language : Russian
Default : No
Forced : No

Text #3
ID : 6
Format : UTF-8
Codec ID : S_TEXT/UTF8
Codec ID/Info : UTF-8 Plain Text
Duration : 2 h 13 min
Bit rate : 55 b/s
Count of elements : 1882
Stream size : 54.2 KiB (0%)
Title : Full
Language : English
Default : No
Forced : No

Text #4
ID : 7
Format : UTF-8
Codec ID : S_TEXT/UTF8
Codec ID/Info : UTF-8 Plain Text
Duration : 2 h 13 min
Bit rate : 60 b/s
Count of elements : 2142
Stream size : 58.8 KiB (0%)
Title : SDH
Language : English
Default : No
Forced : No

Menu
00:00:00.000 : en:Chapter 01
00:04:51.958 : en:Chapter 02
00:09:39.454 : en:Chapter 03
00:13:36.607 : en:Chapter 04
00:18:54.300 : en:Chapter 05
00:24:57.287 : en:Chapter 06
00:28:43.347 : en:Chapter 07
00:32:52.304 : en:Chapter 08
00:39:18.731 : en:Chapter 09
00:43:21.849 : en:Chapter 10
00:48:26.570 : en:Chapter 11
00:53:54.106 : en:Chapter 12
00:58:31.258 : en:Chapter 13
01:05:04.901 : en:Chapter 14
01:09:52.522 : en:Chapter 15
01:13:34.744 : en:Chapter 16
01:19:41.860 : en:Chapter 17
01:23:45.103 : en:Chapter 18
01:28:55.288 : en:Chapter 19
01:33:25.225 : en:Chapter 20
01:40:14.759 : en:Chapter 21
01:45:03.255 : en:Chapter 22
01:49:38.489 : en:Chapter 23
01:55:15.992 : en:Chapter 24
02:01:40.835 : en:Chapter 25
02:05:44.036 : en:Chapter 26
02:12:36.407 : en:Chapter 27
02:15:15.274 : en:Chapter 28

Авторская группа в ВК
pb.wtf



Скачать Kingsman: Золотое кольцо через торрент http://i103.fastpic.ru/big/2017/1228/cd/12f1dec76eaee0030616b54a38007fcd.jpg Скачать фильм Kingsman: Золотое кольцо через торрент бесплантно в хорошем качестве Описание: Когда штаб-квартиры секретной службы Kingsman уничтожены, и весь мир оказался в заложниках у неизвестных, британские суперагенты ... 9.5 10 27
Info! Золотая раздача, скачанное не засчитывается.
Торрент: Зарегистрирован [2017-12-30 08:20] · скачан: 1 310 раз
Статус: √ проверено
Размер: 16.74 GB
Как cкачать? Как скачать Kingsman: Золотое кольцо через торрент | UTorrent

% Раздел Тема Автор DL S | L
Ultra HD (UHD: 2K, 4K, 8K) — видео сверхвысокой чёткости [ 67.46 GB ] Kingsman: Золотое кольцо / Kingsman: The Golden Circle [2017 UHD BDRemux 2160p] DUB [] + 4xAVO sheker187 Скачать
1 | 0
Фильмы (Blu-ray, BD-Remux, HDDVD) [ 47.83 GB ] Kingsman: Золотое кольцо / Kingsman: The Golden Circle [2017 BD Remux 1080p] 3xAVO+2xDUB [] bober100 Скачать
1 | 0
Ultra HD (UHD: 2K, 4K, 8K) — видео сверхвысокой чёткости [ 58.21 GB ] Kingsman: Золотое кольцо / Kingsman: The Golden Circle [2017 UHD BDRemux 2160p] AVO [Ю.Сербин] +DUB [] bober100 Скачать
2 | 0
Фильмы [HD 720p, 1080p] (Хороший звук DUB, MVO) [ 7.17 GB ] Kingsman: Золотое кольцо / Kingsman: The Golden Circle [2017 BDRip 720p] DUB [] bober100 Скачать
2 | 0
Фильмы 2017 [DVDrip, WEB-DLRip, HDrip] (DUB, MVO) [ 2.19 GB ] Kingsman: Золотое кольцо / Kingsman: The Golden Circle [2017 BDRip-AVC] sokol_ok Скачать
1 | 0
Фильмы с авторской озвучкой [ 2.99 GB ] Kingsman: Золотое кольцо / Kingsman: The Golden Circle [2017 BDRip-AVC] AVO [Сербин] Ukr - ExKinoRay Enigma2010 Скачать
1 | 1
Фильмы [HD 720p, 1080p] (Хороший звук DUB, MVO) [ 5.79 GB ] Kingsman: Золотое кольцо / Kingsman: The Golden Circle [2017 BDRip 720p от _denis_100 | NNNB] DUB + AVO + Ukr + Original + Sub _denis_100 Скачать
1 | 0


Последний раз редактировалось: Tiberiumsun69 (2018-02-09 08:44), всего редактировалось 3 раз(а)

28-11-2019 20:33  

Отключить всю рекламу на сайте

30-12-2017 08:20 Kingsman: Золотое кольцо Скачать торрент  

Всем добрый день или вечер и приятного просмотра.

P.S. С наступающим новым годом.)pb.wtf



30-12-2017 11:14 Kingsman: Золотое кольцо Скачать торрент  

Tiberiumsun69 писал(а):

Всем добрый день или вечер и приятного просмотра.

P.S. С наступающим новым годом.)

pb.wtf



31-12-2017 05:17 Kingsman: Золотое кольцо Скачать торрент  

Вчера посмотрел, ну ничего так фильмец на один проход. Качество отличное. PS...Торрент скачан 112 раз, я не понял где отзывы товарищи - отзывы, вот и делай добро после этого людям pb.wtf



31-12-2017 14:14 Kingsman: Золотое кольцо Скачать торрент  

Реклама присутствует?pb.wtf



31-12-2017 14:22 Kingsman: Золотое кольцо Скачать торрент  

Dezertir, Рекламы нет.Через это мы уже прошли и многое осознали.pb.wtf



04-01-2018 19:08 Kingsman: Золотое кольцо Скачать торрент  

Качество отменное только снято как то не как кино в чем приколpb.wtf



05-01-2018 04:14 Kingsman: Золотое кольцо Скачать торрент  

ДмитрийСон, Это не прикол.Вы просто больше видите.Больше чем планировал режиссер. Халтура актеров, нарисованные спецэффекты и т д.pb.wtf



06-01-2018 10:52 Kingsman: Золотое кольцо Скачать торрент  

В принципе не хуже первой части) всем советую) автору спасибо!))pb.wtf



07-01-2018 21:09 Kingsman: Золотое кольцо Скачать торрент  

ReIV-37 писал(а):

В принципе не хуже первой части) всем советую) автору спасибо!))

Мне эта часть намного хуже первой! А сьёмка конечно удивила! ))) Непривычно так, визуализация на высоком уровне! )))pb.wtf



26-01-2018 22:38 Kingsman: Золотое кольцо Скачать торрент  

еее спасибо:3pb.wtf



    Дорогой пользователь! Огромная просьба, поблагодарите релизера, оцените раздачу и оставьте свои комментарий, если Вы скачали Kingsman: Золотое кольцо через торрент бесплатно! Внесите свою лепту в развитие PiratBit!
    Комментировать посты могут только пользователи прошедшие не сложную регистрацию
    Показать сообщения:    

    Kingsman: Золотое кольцо через торрент
    Скачать бесплатно Kingsman: Золотое кольцо
    Kingsman: Золотое кольцо скачать торрент
    Kingsman: Золотое кольцо смотреть онлайн
    Cкачать фильм Kingsman: Золотое кольцо бесплатно
    Kingsman: Золотое кольцо скачать торрент в хорошем качестве
    Kingsman: Золотое кольцо смотреть онлайн бесплатно в хорошем качестве


    Вы не можете начинать темы
    Вы не можете отвечать на сообщения
    Вы не можете редактировать свои сообщения
    Вы не можете удалять свои сообщения
    Вы не можете голосовать в опросах
    Вы не можете прикреплять файлы к сообщениям
    Вы можете скачивать файлы