Ссылка на приватное зеркало нашего сайта всего за 1$. Внимание количество ограничено!!!

2 сезон

iTunes

1 сезон

1

iTunes

iTunes

iTunes

1 сезон

RePack

30

ИГРА 18+

pack

ВАЖНО

!!Акция!!

Alien_RageХит недели

RePack

MK11
pack

Забери бонус

RePack

jed

!!Акция!!

Alien_Rage

RePack

fifa19

RePack

Assassins Creed: Odyssey

RePack

NEED FOR SPEED™ PAYBACK

4 сезон

9 сезон

Бесстыжие 9 сезон

Все сериалы

все сериалы на PB.wtf

RePack

FAR CRY 5
  

Плохая дочь / Серия 1-4 из 4 / (Александр Кананович) [2017 г., Мелодрама, SATRip] pb.wtf

Плохая дочь через торрент pb.wtf

Размер: 2.48 GB | Добавлен: 2 года 9 мес. назад | Торрент скачан:112 раз
Скачать  

30-12-2017 11:44 Плохая дочь Скачать торрент  

Плохая дочь / Серия 1-4 из 4 /
Год выпуска: 2017
Страна: Россия
Жанр: Мелодрама
Продолжительность: 4х~00:45:00
Субтитры: нет

Режиссер: Александр Кананович

В ролях: Дана Абызова, Вячеслав Дробинков, Наталья Курдюбова, Егор Баринов, Вячеслав Чепурченко, Юлия Подозерова, Елизавета Кочеткова, Евгения Хомжукова, Андрей Зябликов, Марина Карабанова

Описание: Студентка медицинского института Сашенька распланировала свою жизнь на годы вперед. Она уверена, что сначала окончит институт, выйдет замуж за любимого Андрея, а потом устроится на хорошую работу. Но все планы рушатся, когда девушка узнает, что после смерти тетки сиротами остались трое детей - 12-летняя Соня, 10-летняя Шурочка и 6-летний Леша. Недолго думая, девушка едет в деревню, чтобы помочь родственникам...

Качество: SATRip
Формат: AVI
Видео кодек: XviD
Аудио кодек: MP3
Видео: 720x400 (1.80:1), 25 fps, XviD build 50 ~1800 kbps
Аудио#1: 48 kHz, MPEG Layer 3, 2 ch, ~128.00 kbps
скриншот   скриншот   скриншот   скриншот   скриншот  

General
Complete name : H:\релизы.торрентфайл\Plohaja.doch.SATRip.[www.riperam.org]\Plohaja.doch.01.SATRip.[www.riperam.org].avi
Format : AVI
Format/Info : Audio Video Interleave
File size : 616 MiB
Duration : 44mn 28s
Overall bit rate : 1 938 Kbps
Writing application : VirtualDubMod 1.5.10.3 | www.virtualdub-fr.org || (build 2550/release)
Writing library : VirtualDubMod build 2550/release

Video
ID : 0
Format : MPEG-4 Visual
Format profile : Advanced Simple@L5
Format settings, BVOP : 2
Format settings, QPel : No
Format settings, GMC : No warppoints
Format settings, Matrix : Default (H.263)
Codec ID : XVID
Codec ID/Hint : XviD
Duration : 44mn 28s
Bit rate : 1 800 Kbps
Width : 720 pixels
Height : 400 pixels
Display aspect ratio : 16:9
Frame rate : 25.000 fps
Color space : YUV
Chroma subsampling : 4:2:0
Bit depth : 8 bits
Scan type : Progressive
Compression mode : Lossy
Bits/(Pixel*Frame) : 0.250
Stream size : 572 MiB (93%)
Writing library : XviD 1.2.1 (UTC 2008-12-04)

Audio
ID : 1
Format : MPEG Audio
Format version : Version 1
Format profile : Layer 3
Mode : Joint stereo
Mode extension : MS Stereo
Codec ID : 55
Codec ID/Hint : MP3
Duration : 44mn 28s
Bit rate mode : Constant
Bit rate : 128 Kbps
Channel(s) : 2 channels
Sampling rate : 48.0 KHz
Compression mode : Lossy
Stream size : 40.7 MiB (7%)
Alignment : Aligned on interleaves
Interleave, duration : 40 ms (1.00 video frame)
Interleave, preload duration : 504 ms
Writing library : LAME3.99r
Encoding settings : -m j -V 4 -q 9 -lowpass 17 -b 128

pb.wtf



Скачать Плохая дочь через торрент http://i103.fastpic.ru/big/2017/1230/27/e73e24d7d2121e4a9196ecf01ded1327.jpg Скачать фильм Плохая дочь через торрент бесплантно в хорошем качестве Описание: Студентка медицинского института Сашенька распланировала свою жизнь на годы вперед. Она уверена, что сначала окончит институт, ... 5.5 10 2
Торрент: Зарегистрирован [2017-12-30 11:44] · скачан: 112 раз
Статус: √ проверено
Размер: 2.48 GB
Как cкачать? Как скачать Плохая дочь через торрент | qTorrent

% Раздел Тема Автор DL S | L
Наши сериалы [ 2.17 GB ] Плохая дочь / Серии: 1-4 из 4 [2017 SATRip-AVC] aleksan55 Скачать
1 | 0

28-11-2019 20:33  

Отключить всю рекламу на сайте

    Дорогой пользователь! Огромная просьба, поблагодарите релизера, оцените раздачу и оставьте свои комментарий, если Вы скачали Плохая дочь через торрент бесплатно! Внесите свою лепту в развитие PiratBit!
    Комментировать посты могут только пользователи прошедшие не сложную регистрацию
    Показать сообщения:    

    Плохая дочь через торрент
    Скачать бесплатно Плохая дочь
    Плохая дочь скачать торрент
    Плохая дочь смотреть онлайн
    Cкачать фильм Плохая дочь бесплатно
    Плохая дочь скачать торрент в хорошем качестве
    Плохая дочь смотреть онлайн бесплатно в хорошем качестве


    Вы не можете начинать темы
    Вы не можете отвечать на сообщения
    Вы не можете редактировать свои сообщения
    Вы не можете удалять свои сообщения
    Вы не можете голосовать в опросах
    Вы не можете прикреплять файлы к сообщениям
    Вы можете скачивать файлы