Ссылка на приватное зеркало нашего сайта всего за 1$. Внимание количество ограничено!!!

2 сезон

iTunes

1 сезон

1

iTunes

iTunes

iTunes

1 сезон

RePack

30

ИГРА 18+

pack

ВАЖНО

!!Акция!!

Alien_RageХит недели

RePack

MK11
pack

Забери бонус

RePack

jed

!!Акция!!

Alien_Rage

RePack

fifa19

RePack

Assassins Creed: Odyssey

RePack

NEED FOR SPEED™ PAYBACK

4 сезон

9 сезон

Бесстыжие 9 сезон

Все сериалы

все сериалы на PB.wtf

RePack

FAR CRY 5
  

Мама для Снегурочки / Серии 1-4 из 4 (Антон Азаров) [2017, Мелодрама, WEB-DLRip] pb.wtf

Мама для Снегурочки через торрент pb.wtf

Размер: 2.15 GB | Добавлен: 2 года 9 мес. назад | Торрент скачан:109 раз
Скачать  

30-12-2017 15:19 Мама для Снегурочки Скачать торрент  

Мама для СнегурочкиГод выпуска: 2017
Страна: Россия, Украина
Жанр: Мелодрама
Продолжительность: x 00:43:00
Перевод: Оригинал
Субтитры: отсутствуют

Режиссер: Антон Азаров



В ролях:

Даниил Белых, Фатима Горбенко, Екатерина Гулякова, Ева Шевченко-Головко, Кирилл Жандаров, Алексей Нагрудный, Александр Ярема, Галина Корнеева, Нина Набока, Татьяна Печёнкина

Описание:

В канун Нового года Денис слёзно просит друга Юрия подменить его на работе — стать Дедом Морозом. Юрий соглашается, ведь друг гарантирует, что почти ничего не придется делать. Но в первый же рабочий день всё идет наперекосяк, и новоиспеченному Деду Морозу приходится выкручиваться. Неожиданно для всех, а особенно для себя самого, он справляется на отлично. Это и положило начало успешному тандему — Снегурка Вика и Дед Мороз Юрий. Вскоре жизнь коллег круто изменится, ведь помимо нелепых ситуаций на работе, им придётся пережить и личные драмы, которые их сильно сблизят. Да так, что вскоре они не смогут жить друг без друга. Правда, признаться, друг другу в своих чувствах всё время не хватает смелости. Но, говорят, что под Новый год мечты сбываются…

Качество: WEB-DLRip
Формат: AVI
Видео кодек: XviD
Аудио кодек: AC3

Видео: ~ 1570 Кбит/с, 720x400
Аудио: AC3, 2 ch, 192 Кбит/с
скриншот  скриншот  скриншот  

Общее
Полное имя : D:\Mama.dlia.snegurochki.2017.WEB-DLRip.Files-x\01.Mama.dlia.snegurochki.2017.WEB-DLRip.Files-x.avi
Формат : AVI
Формат/Информация : Audio Video Interleave
Размер файла : 550 Мбайт
Продолжительность : 43 м. 28 с.
Общий поток : 1770 Кбит/сек
Программа кодирования : VirtualDubMod 1.5.10.3 | www.virtualdub-fr.org || (build 2550/release)
Библиотека кодирования : VirtualDubMod build 2550/release

Видео
Идентификатор : 0
Формат : MPEG-4 Visual
Профиль формата : Advanced Simple@L5
Параметр BVOP формата : 1
Параметр QPel формата : Нет
Параметр GMC формата : Без точки перехода
Параметр матрицы формата : Выборочная
Идентификатор кодека : XVID
Идентификатор кодека/Подсказка : XviD
Продолжительность : 43 м. 28 с.
Битрейт : 1568 Кбит/сек
Ширина : 720 пикселей
Высота : 400 пикселей
Соотношение сторон : 16:9
Частота кадров : 25,000 кадров/сек
Цветовое пространство : YUV
Субдискретизация насыщенности : 4:2:0
Битовая глубина : 8 бит
Тип развёртки : Прогрессивная
Метод сжатия : С потерями
Бит/(Пиксели*Кадры) : 0.218
Размер потока : 487 Мбайт (89%)
Библиотека кодирования : XviD 73

Аудио
Идентификатор : 1
Формат : AC-3
Формат/Информация : Audio Coding 3
Расширение режима : CM (complete main)
Параметр Endianness формата : Big
Идентификатор кодека : 2000
Продолжительность : 43 м. 28 с.
Вид битрейта : Постоянный
Битрейт : 192 Кбит/сек
Каналы : 2 канала
Расположение каналов : Front: L R
Частота : 48,0 КГц
Частота кадров : 31,250 кадров/сек (1536 spf)
Метод сжатия : С потерями
Размер потока : 59,7 Мбайт (11%)
Выравнивание : Разделение по промежуткам
Продолжительность промежутка : 40 мс. (1,00 видеокадр)
Время предзагрузки промежутка : 500 мс.

Когда раздача ведётся путём добавления новых серий, при каждом добавлении создётся новый торрент. Чтобы начать докачку новой серии, пользователям необходимо сделать следующее:
(1) остановить скачивание,
(2) удалить старый торрент у себя из клиента (старые серии удалять не надо),
(3) скачать новый торрент и запустить его у себя в клиенте вместо старого, при этом указать клиенту путь в старую папку, куда и должно происходить скачивание новых серий.
Ваш клиент при этом должен произвести хеширование (проверку) старой папки (если не производит сам - помогите ему сделать это), и будет докачивать только те серии, которых у вас ещё нет. Старые серии при этом не удаляются, а продолжают раздаваться!
Eсли вы уже удалили старые серии, то предотвратить повторную закачку старых серий можно, отжав галочку в соответсвующих местах при запуске нового торрента. По возможности, желательно не удалять старые серии как можно дольше, чтобы релизёр не столько продолжал раздавать старые серии, а смог сконцентрироваться на новых.
pb.wtf



Скачать Мама для Снегурочки через торрент http://i100.fastpic.ru/big/2017/1230/be/ba246e4858f4f21a83b08109fbeb3abe.jpg Скачать фильм Мама для Снегурочки через торрент бесплантно в хорошем качестве Описание: В канун Нового года Денис слёзно просит друга Юрия подменить его на работе — стать Дедом Морозом. Юрий соглашается, ведь друг ... 7.8 10 4
Торрент: Зарегистрирован [2017-12-30 19:08] · скачан: 109 раз
Статус: √ проверено
Размер: 2.15 GB
Как cкачать? Как скачать Мама для Снегурочки через торрент | qTorrent

28-11-2019 20:33  

Отключить всю рекламу на сайте

    Дорогой пользователь! Огромная просьба, поблагодарите релизера, оцените раздачу и оставьте свои комментарий, если Вы скачали Мама для Снегурочки через торрент бесплатно! Внесите свою лепту в развитие PiratBit!
    Комментировать посты могут только пользователи прошедшие не сложную регистрацию
    Показать сообщения:    

    Мама для Снегурочки через торрент
    Скачать бесплатно Мама для Снегурочки
    Мама для Снегурочки скачать торрент
    Мама для Снегурочки смотреть онлайн
    Cкачать фильм Мама для Снегурочки бесплатно
    Мама для Снегурочки скачать торрент в хорошем качестве
    Мама для Снегурочки смотреть онлайн бесплатно в хорошем качестве


    Вы не можете начинать темы
    Вы не можете отвечать на сообщения
    Вы не можете редактировать свои сообщения
    Вы не можете удалять свои сообщения
    Вы не можете голосовать в опросах
    Вы не можете прикреплять файлы к сообщениям
    Вы можете скачивать файлы