Ссылка на приватное зеркало нашего сайта всего за 1$. Внимание количество ограничено!!!

2 сезон

iTunes

1 сезон

1

iTunes

iTunes

iTunes

1 сезон

RePack

30

ИГРА 18+

pack

ВАЖНО

!!Акция!!

Alien_RageХит недели

RePack

MK11
pack

Забери бонус

RePack

jed

!!Акция!!

Alien_Rage

RePack

fifa19

RePack

Assassins Creed: Odyssey

RePack

NEED FOR SPEED™ PAYBACK

4 сезон

9 сезон

Бесстыжие 9 сезон

Все сериалы

все сериалы на PB.wtf

RePack

FAR CRY 5
  

Перекресток / Серия 1-4 из 4 (Андрей Селиванов) [2017 г., Мелодрама, SATRip] pb.wtf

Перекресток через торрент pb.wtf

Размер: 2.41 GB | Добавлен: 2 года 9 мес. назад | Торрент скачан:37 раз
Скачать  

30-12-2017 17:08 Перекресток Скачать торрент  

Перекресток / Серия 1-4 из 4 /
Год выпуска: 2017
Страна: Россия
Жанр: Мелодрама
Продолжительность: 4х~00:45:00
Субтитры: нет

Режиссер: Андрей Селиванов

В ролях: Янина Соколовская, Дарья Лузина, Дарья Петрова, Алексей Фатеев, Константин Стрельников

Описание: На перекрестке в центре города сталкиваются машины трех женщин: жены бизнесмена Елены, преподавателя художественного колледжа Ольги и курьера пиццерии Светы. Авария незначительная, но все женщины очень спешат и опоздание меняет все. Елена не успевает на самолет, а вернувшись застает своего мужа в постели с секретаршей. Ольга спешит домой, чтобы попрощаться с мужем перед его командировкой, но опаздывает и приезжает прямо на вокзал, где выясняет, что он пропал. Свету увольняют с работы, зарплату вычитают в счет ремонта машины. Теперь девушке не на что жить и нечем платить за съемную квартиру. "Если бы не авария!" – повторяют женщины, сокрушаясь, что тот роковой перекресток сломал им жизнь. Но нет худа без добра. Елена предлагает Ольге и Свете неожиданную работу - на несколько месяцев стать ее наемными подругами с почасовой оплатой...

Качество: SATRip
Формат: AVI
Видео кодек: XviD
Аудио кодек: MP3
Видео: 720x400 (1.80:1), 25 fps, XviD build 50 ~1800 kbps
Аудио#1: 48 kHz, MPEG Layer 3, 2 ch, ~128.00 kbps
скриншот   скриншот   скриншот   скриншот  

General
Complete name : H:\релизы.торрентфайл\Perekrestok.SATRip.[www.riperam.org]\Perekrestok.01.SATRip.[www.riperam.org].avi
Format : AVI
Format/Info : Audio Video Interleave
File size : 612 MiB
Duration : 44mn 8s
Overall bit rate : 1 938 Kbps
Writing application : VirtualDubMod 1.5.10.3 | www.virtualdub-fr.org || (build 2550/release)
Writing library : VirtualDubMod build 2550/release

Video
ID : 0
Format : MPEG-4 Visual
Format profile : Advanced Simple@L5
Format settings, BVOP : 2
Format settings, QPel : No
Format settings, GMC : No warppoints
Format settings, Matrix : Default (H.263)
Codec ID : XVID
Codec ID/Hint : XviD
Duration : 44mn 8s
Bit rate : 1 800 Kbps
Width : 720 pixels
Height : 400 pixels
Display aspect ratio : 16:9
Frame rate : 25.000 fps
Color space : YUV
Chroma subsampling : 4:2:0
Bit depth : 8 bits
Scan type : Progressive
Compression mode : Lossy
Bits/(Pixel*Frame) : 0.250
Stream size : 568 MiB (93%)
Writing library : XviD 1.2.1 (UTC 2008-12-04)

Audio
ID : 1
Format : MPEG Audio
Format version : Version 1
Format profile : Layer 3
Mode : Joint stereo
Mode extension : MS Stereo
Codec ID : 55
Codec ID/Hint : MP3
Duration : 44mn 8s
Bit rate mode : Constant
Bit rate : 128 Kbps
Channel(s) : 2 channels
Sampling rate : 48.0 KHz
Compression mode : Lossy
Stream size : 40.4 MiB (7%)
Alignment : Aligned on interleaves
Interleave, duration : 40 ms (1.00 video frame)
Interleave, preload duration : 504 ms
Writing library : LAME3.99r
Encoding settings : -m j -V 4 -q 9 -lowpass 17 -b 128

pb.wtf



Скачать Перекресток через торрент http://i102.fastpic.ru/big/2017/1230/63/6a140ebc7883cd752abf828056a07563.jpg Скачать фильм Перекресток через торрент бесплантно в хорошем качестве Описание: На перекрестке в центре города сталкиваются машины трех женщин: жены бизнесмена Елены, преподавателя художественного колледжа ... 10 10 3
Торрент: Зарегистрирован [2017-12-30 17:08] · скачан: 37 раз
Статус: √ проверено
Размер: 2.41 GB
Как cкачать? Как скачать Перекресток через торрент | qTorrent

% Раздел Тема Автор DL S | L
Наши сериалы [ 2.73 GB ] Перекресток / 1-4 серии из 4 [2017 Мело WEB-DLRip] bober100 Скачать
2 | 0

28-11-2019 20:33  

Отключить всю рекламу на сайте

    Дорогой пользователь! Огромная просьба, поблагодарите релизера, оцените раздачу и оставьте свои комментарий, если Вы скачали Перекресток через торрент бесплатно! Внесите свою лепту в развитие PiratBit!
    Комментировать посты могут только пользователи прошедшие не сложную регистрацию
    Показать сообщения:    

    Перекресток через торрент
    Скачать бесплатно Перекресток
    Перекресток скачать торрент
    Перекресток смотреть онлайн
    Cкачать фильм Перекресток бесплатно
    Перекресток скачать торрент в хорошем качестве
    Перекресток смотреть онлайн бесплатно в хорошем качестве


    Вы не можете начинать темы
    Вы не можете отвечать на сообщения
    Вы не можете редактировать свои сообщения
    Вы не можете удалять свои сообщения
    Вы не можете голосовать в опросах
    Вы не можете прикреплять файлы к сообщениям
    Вы можете скачивать файлы