Ссылка на приватное зеркало нашего сайта всего за 1$. Внимание количество ограничено!!!

2 сезон

iTunes

1 сезон

1

2 сезон

2 сезон

iTunes

1 сезон

RePack

30

Ultimate

ВАЖНО

ИГРА 18+

pack

RePack

MK11
pack

Забери бонус

RePack

jed

!!Акция!!

Alien_Rage

RePack

fifa19

RePack

Assassins Creed: Odyssey

RePack

NEED FOR SPEED™ PAYBACK

4 сезон

9 сезон

Бесстыжие 9 сезон

Все сериалы

все сериалы на PB.wtf

RePack

FAR CRY 5
  

Ясновидец / Shut Eye / Сезон 2 / Серии 1-10 из 10 (Йохан Ренк) [2017, Комедия, драма, WEBRip] [MVO] (Jaskier) pb.wtf

Ясновидец через торрент pb.wtf

Раздают: 1 [ 0 KB/s ]
Размер: 5.75 GB | Добавлен: 2 года 10 мес. назад | Торрент скачан:32 раза
Скачать  

30-12-2017 20:03 Ясновидец Скачать торрент  

Ясновидец / Shut Eye
Год выпуска: 2017
Жанр: Комедия, драма
Выпущено: США, Gran Via, TriStar Television
Продолжительность: ~ 00:50:00
Перевод: Профессиональный (многоголосый) Jaskier

Режиссер: Йохан Ренк

В ролях: Джеффри Донован, Мэл Харрис, Изабелла Росселлини, Энгус Сэмпсон, Дилан Шмид, КаДи Стрикленд, Дэвид Зайас, Эммануэль Шрики, Сьюзэн Миснер, Хавана Гуппи

О фильме: Чарли Хэйвфорд – неудачливый экстрасенс. Ему не повезло в мире магии, зато он прижился в области криминала. Его подобрал авторитет по имени Романи. И принудил Чарли присматривать за несколькими магическими салонами в Эл-Эй. У преступных деятелей в сфере экстрасенсорики свой интерес. Сначала они, конечно, хотят зарабатывать на доверчивых лохах. Вот только однажды Хэйвфорд, кажется, действительно связался с параллельным миром. Это произошло после того, как ему прилетелом кувшином по голове. Во что ему теперь верить – мафию или магию?



Файл
Качество: WEBRip
Формат: AVI
Видео: 720x400, 23.976 fps, XviD ~1000 kbps avg
Аудио: 48 kHz, MPEG Layer 3, 2 ch, ~128.00 kbps avg - MVO
Аудио: 48 kHz, MPEG Layer 3, 2 ch, ~128.00 kbps avg - ENG
General
Complete name : E:\Shut.Eye Season 2 (WEBRip l 400p l Jaskier)\Shut.Eye.S02E01.WEBRip.Jaskier.Rus.Eng.avi
Format : AVI
Format/Info : Audio Video Interleave
File size : 446 MiB
Duration : 50 min 24 s
Overall bit rate : 1 237 kb/s
Writing application : VirtualDubMod 1.5.10.2 (build 2540/release)
Writing library : VirtualDubMod build 2540/release

Video
ID : 0
Format : MPEG-4 Visual
Format profile : Advanced Simple@L5
Format settings : BVOP1
Format settings, BVOP : 1
Format settings, QPel : No
Format settings, GMC : No warppoints
Format settings, Matrix : Default (MPEG)
Codec ID : XVID
Codec ID/Hint : XviD
Duration : 50 min 24 s
Bit rate : 921 kb/s
Width : 720 pixels
Height : 400 pixels
Display aspect ratio : 16:9
Frame rate : 23.976 (24000/1001) FPS
Color space : YUV
Chroma subsampling : 4:2:0
Bit depth : 8 bits
Scan type : Progressive
Compression mode : Lossy
Bits/(Pixel*Frame) : 0.133
Stream size : 332 MiB (74%)
Writing library : XviD 1.2.1 (UTC 2008-12-04)

Audio #1
ID : 1
Format : MPEG Audio
Format version : Version 1
Format profile : Layer 3
Codec ID : 55
Codec ID/Hint : MP3
Duration : 50 min 24 s
Bit rate mode : Constant
Bit rate : 128 kb/s
Channel(s) : 2 channels
Sampling rate : 48.0 kHz
Compression mode : Lossy
Stream size : 46.2 MiB (10%)
Alignment : Aligned on interleaves
Writing library : LAME3.100Є

Audio #2
ID : 2
Format : MPEG Audio
Format version : Version 1
Format profile : Layer 3
Format settings : Joint stereo / MS Stereo
Mode : Joint stereo
Mode extension : MS Stereo
Codec ID : 55
Codec ID/Hint : MP3
Duration : 50 min 24 s
Bit rate mode : Constant
Bit rate : 128 kb/s
Channel(s) : 2 channels
Sampling rate : 48.0 kHz
Compression mode : Lossy
Stream size : 46.2 MiB (10%)
Alignment : Aligned on interleaves
Writing library : LAME3.100Є
скриншот  скриншот  скриншот  
pb.wtf



Скачать Ясновидец через торрент http://i85.fastpic.ru/big/2016/1213/51/7b522ca9e6ef3b575a5d645f5fc0f651.jpg Скачать фильм Ясновидец через торрент бесплантно в хорошем качестве О фильме: Чарли Хэйвфорд – неудачливый экстрасенс. Ему не повезло в мире магии, зато он прижился в области криминала. Его подобрал ... 10 10 5
Торрент: Зарегистрирован [2017-12-30 20:03] · скачан: 32 раз
Статус: √ проверено
Размер: 5.75 GB
Как cкачать? Как скачать Ясновидец через торрент | qTorrent

% Раздел Тема Автор DL S | L
Зарубежные сериалы [ 20.25 GB ] Ясновидец / Shut Eye / Сезон 2 / Серии 1-10 из 10 [2017 WEBRip 1080p] [MVO] killermax2013 Скачать
1 | 0
Зарубежные сериалы [ 5.72 GB ] Ясновидец / Shut Eye / Сезон 2 / Серии 1-10 из 10 [2017 WEBRip] [MVO] killermax2013 Скачать
1 | 0
Зарубежные сериалы [ 5.37 GB ] Ясновидец / Shut Eye / Сезон 2 / Серии 1-10 из 10 [2017 WEBRip] MVO [Gears Media] bober100 Скачать
1 | 0
Зарубежные сериалы [ 9.69 GB ] Ясновидящий / Ясновидец / Shut Eye / Сезон: 2 / Серии 1-10 из 10 [2017 WEBRip 720p] MVO [BaibaKo] GEKADOL Скачать
1 | 0

28-11-2019 20:33  

Отключить всю рекламу на сайте

25-02-2018 08:21 Ясновидец Скачать торрент  

Сериал интересный. Но в некоторых местах действия персонажей настолько нелогичны, что мое имхо исплевалось. А ещё очень мало видений и их не используют и не интерпретируют. Так просто "Ох батюшки, ох матушки - видение! Ну ладно, ладно, пойду посру". Как-то так. Если ситуацию не поправят, сериал скорее всего сольют. А жаль. Задумка не плохая, очень интересно разные аспекты показаны. Смотреть можно.pb.wtf



    Дорогой пользователь! Огромная просьба, поблагодарите релизера, оцените раздачу и оставьте свои комментарий, если Вы скачали Ясновидец через торрент бесплатно! Внесите свою лепту в развитие PiratBit!
    Комментировать посты могут только пользователи прошедшие не сложную регистрацию
    Показать сообщения:    

    Ясновидец через торрент
    Скачать бесплатно Ясновидец
    Ясновидец скачать торрент
    Ясновидец смотреть онлайн
    Cкачать фильм Ясновидец бесплатно
    Ясновидец скачать торрент в хорошем качестве
    Ясновидец смотреть онлайн бесплатно в хорошем качестве


    Вы не можете начинать темы
    Вы не можете отвечать на сообщения
    Вы не можете редактировать свои сообщения
    Вы не можете удалять свои сообщения
    Вы не можете голосовать в опросах
    Вы не можете прикреплять файлы к сообщениям
    Вы можете скачивать файлы