Ссылка на приватное зеркало всего за 1$. Внимание количество ограничено!!!

OK

1+1

iTunes

мы

OK

1

WEB-DLRip

Джокер

Пифагор

Ведьмак / The Witcher сериал

iTunes

ПШазам

ОК

Оно 2

iTunes

30
pack

Вам бонус

ВАЖНО

!!Акция!!

Alien_RageХит недели

RePack

Resident Evil 21

ИГРА 18+

pack

RePack

jed

RePack

fifa19

RePack

Assassins Creed: Odyssey

RePack

NEED FOR SPEED™ PAYBACK

4 сезон

9 сезон

Бесстыжие 9 сезон

Все сериалы

все сериалы на PB.wtf

RePack

FAR CRY 5
  

Нападение пятиглавой акулы / 5 Headed Shark Attack (Нико Де Леон) [2017, ужасы, фантастика, BDRip 720p] MVO [Синема УС] pb.wtf

Нападение пятиглавой акулы через торрент pb.wtf

Размер: 3.74 GB | Добавлен: 2 года назад | Торрент скачан:28 раз
Скачать  

30-12-2017 20:09 Нападение пятиглавой акулы Скачать торрент  

Нападение пятиглавой акулы / 5 Headed Shark Attack
««You can't survive the five!»»

Год выпуска: 2017
Страна: США
Жанр: ужасы, фантастика

Продолжительность: 01:29:48
Перевод: Любительский многоголосый [Синема УС]
Примечание: Присутствует реклама!
Режиссер: Нико Де Леон
В ролях:

Крис Бруно (Red), Nikki Howard (Dr. Angie Yost), Линдсей Сойер (Cait), Джеффри Хольсман (Thaddeus Marshall), Chris Costanzo (Ram), Amaanda Méndez (Kathy), Ian Daryk (Juan), Хорхе Наварро (Sean), Lorna Hernandez (Julia), Michelle Cortés (Lindsay), Nicholas Nene (Sterling), Radamés Medina (Photographer)
Описание:
Сформированная, как морская звезда, пятиглавая акула терроризирует открытый океан. Скоро она вторгнется на пляжи Пуэрто-Рико, угрожая отдыхающим когда-то мирного райского острова.
Рейтинг:

Качество: BDRip 720p
Формат: MKV
Видео: AVC, 1280x720 (16:9), 5391 kbps, 23,976 fps, 0,244 bpp
Аудио: AC3 / 2.0 / 48 kHz / 448 kbps /



General
Unique ID : 238321139160585132688232321099671761610 (0xB34AFB5924F4296B9542A3587C0372CA)
Complete name : E:\5.headed.shark.attack.2017.P.BDRip.72Op.mkv
Format : Matroska
Format version : Version 2
File size : 3.74 GiB
Duration : 1 h 29 min
Overall bit rate mode : Variable
Overall bit rate : 5 958 kb/s
Encoded date : UTC 2017-12-30 16:15:50
Writing application : mkvmerge v8.3.0 ('Over the Horizon') 64bit
Writing library : libebml v1.3.1 + libmatroska v1.4.2

Video
ID : 1
Format : AVC
Format/Info : Advanced Video Codec
Format profile : High@L4.1
Format settings, CABAC : Yes
Format settings, ReFrames : 9 frames
Codec ID : V_MPEG4/ISO/AVC
Duration : 1 h 29 min
Bit rate mode : Variable
Bit rate : 5 392 kb/s
Maximum bit rate : 6 000 kb/s
Width : 1 280 pixels
Height : 720 pixels
Display aspect ratio : 16:9
Frame rate mode : Constant
Frame rate : 23.976 (24000/1001) FPS
Standard : Component
Color space : YUV
Chroma subsampling : 4:2:0
Bit depth : 8 bits
Scan type : Progressive
Bits/(Pixel*Frame) : 0.244
Stream size : 3.38 GiB (90%)
Default : Yes
Forced : No
Color range : Limited
Color primaries : BT.709
Transfer characteristics : BT.709
Matrix coefficients : BT.709

Audio
ID : 2
Format : AC-3
Format/Info : Audio Coding 3
Mode extension : CM (complete main)
Format settings, Endianness : Big
Codec ID : A_AC3
Duration : 1 h 29 min
Bit rate mode : Constant
Bit rate : 448 kb/s
Channel(s) : 2 channels
Channel positions : Front: L R
Sampling rate : 48.0 kHz
Frame rate : 31.250 FPS (1536 spf)
Compression mode : Lossy
Stream size : 288 MiB (8%)
Default : Yes
Forced : No
pb.wtf



Скачать Нападение пятиглавой акулы через торрент http://i4.imageban.ru/out/2017/12/30/06323cbfbd0d0732e0c3238027dd69ba.jpg Скачать фильм Нападение пятиглавой акулы через торрент бесплантно в хорошем качестве Описание: Сформированная, как морская звезда, пятиглавая акула терроризирует открытый океан. Скоро она вторгнется на пляжи Пуэрто-Рико, ... 5.5 10 4
Info! Золотая раздача, скачанное не засчитывается.
Торрент: Зарегистрирован [2017-12-30 20:09] · скачан: 28 раз
Статус: # сомнительно
Размер: 3.74 GB
Как cкачать? Как скачать Нападение пятиглавой акулы через торрент | qTorrent

% Раздел Тема Автор DL S | L
T Фильмы (мультфильмы) cо спонсором показа (Новинки AVI/MKV) [ 1.37 GB ] Нападение пятиглавой акулы / 5 Headed Shark Attack [2017 HDRip] MVO [Синема УС] bober100 Скачать
1 | 0

28-11-2019 20:33  

Отключить всю рекламу на сайте

30-12-2017 21:48 Нападение пятиглавой акулы Скачать торрент  

какая хрень по трейлеру ппц)))pb.wtf



31-12-2017 19:17 Нападение пятиглавой акулы Скачать торрент  

скоро в кино нападение пятиглавой акулы 2 ( то есть шестиглавой) javascript:emoticon(' ')pb.wtf



31-12-2017 22:35 Нападение пятиглавой акулы Скачать торрент  

В шапке надо написать что производитель Asylumpb.wtf



01-01-2018 14:20 Нападение пятиглавой акулы Скачать торрент  

MAJLOY писал(а):

скоро в кино нападение пятиглавой акулы 2 ( то есть шестиглавой) javascript:emoticon(' ')

Я думаю 2 серия про семихвостого крокодила будет ) Дааааа, ТАКОГО упоротого бреда я еще не видел ))) Видите что бывает когда марихуану по рецептам в аптеке выдают, то ли еще будет оёёй.

А какие тут актеры классные! Вот Линдсей Сойер (Cait) например. А что это за имя такое - Cait? Первый раз слышу. Стар стал наверное. Так вот эта красотка снялась в целых 7 (!!!) фильмах, причем в одном из них играет саму себя! Учитесь, Бондарчук и Кончаловские!pb.wtf



    Дорогой пользователь! Огромная просьба, поблагодарите релизера, оцените раздачу и оставьте свои комментарий, если Вы скачали Нападение пятиглавой акулы через торрент бесплатно! Внесите свою лепту в развитие PiratBit!
    Комментировать посты могут только пользователи прошедшие не сложную регистрацию
    Показать сообщения:    

    Нападение пятиглавой акулы через торрент
    Скачать бесплатно Нападение пятиглавой акулы
    Нападение пятиглавой акулы скачать торрент
    Нападение пятиглавой акулы смотреть онлайн
    Cкачать фильм Нападение пятиглавой акулы бесплатно
    Нападение пятиглавой акулы скачать торрент в хорошем качестве
    Нападение пятиглавой акулы смотреть онлайн бесплатно в хорошем качестве


    Вы не можете начинать темы
    Вы не можете отвечать на сообщения
    Вы не можете редактировать свои сообщения
    Вы не можете удалять свои сообщения
    Вы не можете голосовать в опросах
    Вы не можете прикреплять файлы к сообщениям
    Вы можете скачивать файлы