Ссылка на приватное зеркало нашего сайта всего за 1$. Внимание количество ограничено!!!

2 сезон

iTunes

1 сезон

1

2 сезон

2 сезон

iTunes

1 сезон

RePack

30

Ultimate

ВАЖНО

ИГРА 18+

pack

RePack

MK11
pack

Забери бонус

RePack

jed

!!Акция!!

Alien_Rage

RePack

fifa19

RePack

Assassins Creed: Odyssey

RePack

NEED FOR SPEED™ PAYBACK

4 сезон

9 сезон

Бесстыжие 9 сезон

Все сериалы

все сериалы на PB.wtf

RePack

FAR CRY 5
  

Черное зеркало / Black Mirror / 4 сезон / 1-6 серия из 6 (Оуэн Харрис, Карл Тиббеттс, Отто Баферст) (Оуэн Харрис, Карл Тиббеттс, Отто Баферст) [2017, фантастика, триллер, драма, WEBRip] [MVO] (Profix Media ) pb.wtf

Черное зеркало через торрент pb.wtf

Размер: 4.07 GB | Добавлен: 2 года 10 мес. назад | Торрент скачан:38 раз
Скачать  

30-12-2017 20:22 Черное зеркало Скачать торрент  


Черное зеркало | Black Mirror

• Год выпуска: 2017
• Страна: Великобритания
• Жанр: триллер, драма,
• Продолжительность: ~ 01:18:00
• Перевод: Профессиональный (многоголосый закадровый) | Profix Media

• Режиссёр: Оуэн Харрис, Карл Тиббеттс, Отто Баферст

• В ролях: Брайс Даллас Ховард, Элис Ив, Гугу Мбата-Роу, Джером Флинн, Маккензи Дэвис, Алекс Лоутер, Джеймс Нортон, Келли Макдональд, Майкл Келли, Уайат Расселл, Ханна Джон-Кэймен

• Описание: «Чёрное зеркало» — британский фантастический телесериал, созданный по сценарию Чарли Брукера. Эпизоды не связаны между собой ни сюжетом, ни актёрами, ни временем или местом повествования. По словам Брукера, все сюжеты объединяет лишь сатира на тот образ жизни, что распространён в современном обществе. Сквозная тема — влияние информационных технологий на человеческие отношения.


Автор рипа -- JuSSiKa

• Качество: WEBRip
• Формат: AVI
• Видео: XviD, ~ 1553 Кбит/с, 720x384, 25 fps
• Аудио: MP3, 48 kHz, 2 ch, 128 kbps - MVO
• Аудио: MP3, 48 kHz, 2 ch, 128 kbps - ENG
• Субтитры: отсутствуют
General
Complete name : E:\Black.Мirror.S04.WEBRip.RusEng.Profix.Media\Black.Мirror.S04E01.WEBRip.RusEng.ProfixMedia.L.avi
Format : AVI
Format/Info : Audio Video Interleave
File size : 900 MiB
Duration : 1 h 16 min
Overall bit rate : 1 653 kb/s
Writing application : VirtualDubMod 1.5.10.3 (build 2550/release)
Writing library : VirtualDubMod build 2550/release

Video
ID : 0
Format : MPEG-4 Visual
Format profile : Advanced Simple@L5
Format settings : BVOP1
Format settings, BVOP : 1
Format settings, QPel : No
Format settings, GMC : No warppoints
Format settings, Matrix : Default (H.263)
Codec ID : XVID
Codec ID/Hint : XviD
Duration : 1 h 16 min
Bit rate : 1 321 kb/s
Width : 720 pixels
Height : 384 pixels
Display aspect ratio : 1.85:1
Frame rate : 25.000 FPS
Color space : YUV
Chroma subsampling : 4:2:0
Bit depth : 8 bits
Scan type : Progressive
Compression mode : Lossy
Bits/(Pixel*Frame) : 0.191
Stream size : 719 MiB (80%)
Writing library : XviD 1.2.1 (UTC 2008-12-04)

Audio #1
ID : 1
Format : MPEG Audio
Format version : Version 1
Format profile : Layer 3
Format settings : Joint stereo / MS Stereo
Mode : Joint stereo
Mode extension : MS Stereo
Codec ID : 55
Codec ID/Hint : MP3
Duration : 1 h 16 min
Bit rate mode : Constant
Bit rate : 128 kb/s
Channel(s) : 2 channels
Sampling rate : 48.0 kHz
Compression mode : Lossy
Stream size : 69.7 MiB (8%)
Alignment : Aligned on interleaves

Audio #2
ID : 2
Format : MPEG Audio
Format version : Version 1
Format profile : Layer 3
Format settings : Joint stereo / MS Stereo
Mode : Joint stereo
Mode extension : MS Stereo
Codec ID : 55
Codec ID/Hint : MP3
Duration : 1 h 16 min
Bit rate mode : Constant
Bit rate : 128 kb/s
Channel(s) : 2 channels
Sampling rate : 48.0 kHz
Compression mode : Lossy
Stream size : 69.7 MiB (8%)
Alignment : Aligned on interleaves
скриншот  скриншот  скриншот  
pb.wtf



Скачать Черное зеркало через торрент http://i99.fastpic.ru/big/2017/1230/63/b1a7de22f8040d2df72eb7bcebe83c63.png Скачать фильм Черное зеркало через торрент бесплантно в хорошем качестве Описание: «Чёрное зеркало» — британский фантастический телесериал, созданный по сценарию Чарли Брукера. Эпизоды не связаны между собой ни ... 10 10 3
Торрент: Зарегистрирован [2018-01-09 17:42] · скачан: 38 раз
Статус: √ проверено
Размер: 4.07 GB
Как cкачать? Как скачать Черное зеркало через торрент | qTorrent

% Раздел Тема Автор DL S | L
Зарубежные сериалы [ 27.34 GB ] Черное зеркало / Black Mirror / Сезон: 4 / Серии: 1-6 из 6 [2017 WEBRip 1080p] [DVO] + 2x[MVO] killermax2013 Скачать
1 | 0
Зарубежные сериалы [ 5.21 GB ] Черное зеркало / Black Mirror / Сезон: 4 / Серии: 1-6 из 6 [2017 WEBRip] DVO [Кубик в Кубе] bober100 Скачать
1 | 0
Зарубежные сериалы [ 14.53 GB ] Черное зеркало / Black Mirror / Сезон: 4 / Серии: 1-6 из 6 [2017 WEBRip 720p] DVO [Кубик в Кубе] bober100 Скачать
1 | 0
Зарубежные сериалы [ 25.46 GB ] Черное зеркало / Black Mirror / Сезон: 4 / Серии: 1-6 из 6 [2017 WEBRip 1080p] DVO [Кубик в Кубе] bober100 Скачать
1 | 0
Зарубежные сериалы [ 4.77 GB ] Черное зеркало / Black Mirror / Сезон: 4 / Серии: 1-6 из 6 [2017 WEBRip] [DVO] [Кубик в Кубе] killermax2013 Скачать
1 | 0
Зарубежные сериалы [ 13.02 GB ] Черное зеркало / Black Mirror / 4 сезон / 1-6 серия из 6 [2017 WEB-DL 1080p] [MVO] killermax2013 Скачать
1 | 0
Зарубежные сериалы [ 4.27 GB ] Черное зеркало / Black Mirror / Сезон: 4 / Серии: 1-6 из 6 [2017 WEBRip] MVO [NewStudio] bober100 Скачать
1 | 0

28-11-2019 20:33  

Отключить всю рекламу на сайте

    Дорогой пользователь! Огромная просьба, поблагодарите релизера, оцените раздачу и оставьте свои комментарий, если Вы скачали Черное зеркало через торрент бесплатно! Внесите свою лепту в развитие PiratBit!
    Комментировать посты могут только пользователи прошедшие не сложную регистрацию
    Показать сообщения:    

    Черное зеркало через торрент
    Скачать бесплатно Черное зеркало
    Черное зеркало скачать торрент
    Черное зеркало смотреть онлайн
    Cкачать фильм Черное зеркало бесплатно
    Черное зеркало скачать торрент в хорошем качестве
    Черное зеркало смотреть онлайн бесплатно в хорошем качестве


    Вы не можете начинать темы
    Вы не можете отвечать на сообщения
    Вы не можете редактировать свои сообщения
    Вы не можете удалять свои сообщения
    Вы не можете голосовать в опросах
    Вы не можете прикреплять файлы к сообщениям
    Вы можете скачивать файлы