Ссылка на приватное зеркало всего за 1$. Внимание количество ограничено!!!

OK

1+1

iTunes

мы

OK

1

WEB-DLRip

Джокер

Пифагор

Ведьмак / The Witcher сериал

Лицензия

ПШазам

ОК

Оно 2

iTunes

30
pack

Вам бонус

ВАЖНО

!!Акция!!

Alien_RageХит недели

RePack

Resident Evil 21

ИГРА 18+

pack

RePack

jed

!!Акция!!

Alien_Rage

RePack

fifa19

RePack

Assassins Creed: Odyssey

RePack

NEED FOR SPEED™ PAYBACK

4 сезон

9 сезон

Бесстыжие 9 сезон

Все сериалы

все сериалы на PB.wtf

RePack

FAR CRY 5
  

Нападение пятиглавой акулы / 5 Headed Shark Attack (Нико Де Леон) [2017, ужасы, фантастика, HDRip] MVO [Синема УС] pb.wtf

Нападение пятиглавой акулы через торрент pb.wtf

Размер: 1.37 GB | Добавлен: 2 года назад | Торрент скачан:49 раз
Скачать  

30-12-2017 20:42 Нападение пятиглавой акулы Скачать торрент  

Нападение пятиглавой акулы / 5 Headed Shark AttackГод выпуска: 2017
Страна: США
Жанр: ужасы, фантастика
Продолжительность: 01:29:48
Перевод: Любительский (многоголосый) - [Синема УС]
Субтитры: отсутствуют

Режиссер: Нико Де Леон

rating

В ролях:

Крис Бруно, Никки Говард, Линдсей Сойер, Джеффри Хольсман, Крис Костанцо, Амаанда Мендес, Ян Дарик, Хорхе Наварро, Лорна Эрнандес, Мишель Кортес

Описание:

Сформированная, как морская звезда, пятиглавая акула терроризирует открытый океан. Скоро она вторгнется на пляжи Пуэрто-Рико, угрожая отдыхающим когда-то мирного райского острова.

Качество: HDRip
Формат: AVI
Видео кодек: XviD
Аудио кодек: AC3

Видео: 1721 Kбит/с, 720x400
Аудио#1: Русский, (AC3, 2 ch, 448 Кбит/с)

скриншот   скриншот   скриншот   скриншот  скриншот  скриншот  

Общее
Полное имя : D:\5.headed.shark.attack.2017.P.HDRip.14OOMB.avi
Формат : AVI
Формат/Информация : Audio Video Interleave
Размер файла : 1,37 Гбайт
Продолжительность : 1 ч. 29 м.
Общий поток : 2179 Кбит/сек
Программа кодирования : VirtualDubMod 1.5.10.2 (build 2540/release)
Библиотека кодирования : VirtualDubMod build 2540/release

Видео
Идентификатор : 0
Формат : MPEG-4 Visual
Профиль формата : Advanced Simple@L5
Параметр BVOP формата : 2
Параметр QPel формата : Нет
Параметр GMC формата : Без точки перехода
Параметр матрицы формата : Default (MPEG)
Идентификатор кодека : XVID
Идентификатор кодека/Подсказка : XviD
Продолжительность : 1 ч. 29 м.
Битрейт : 1722 Кбит/сек
Ширина : 720 пикселей
Высота : 400 пикселей
Соотношение сторон : 16:9
Частота кадров : 23,976 (24000/1001) кадра/сек
Цветовое пространство : YUV
Субдискретизация насыщенности : 4:2:0
Битовая глубина : 8 бит
Тип развёртки : Прогрессивная
Метод сжатия : С потерями
Бит/(Пиксели*Кадры) : 0.249
Размер потока : 1,08 Гбайт (79%)
Библиотека кодирования : XviD 1.2.1 (UTC 2008-12-04)

Аудио
Идентификатор : 1
Формат : AC-3
Формат/Информация : Audio Coding 3
Расширение режима : CM (complete main)
Параметр Endianness формата : Big
Идентификатор кодека : 2000
Продолжительность : 1 ч. 29 м.
Вид битрейта : Постоянный
Битрейт : 448 Кбит/сек
Каналы : 2 канала
Расположение каналов : Front: L R
Частота : 48,0 КГц
Частота кадров : 31,250 кадров/сек (1536 spf)
Метод сжатия : С потерями
Размер потока : 288 Мбайт (21%)
Выравнивание : Разделение по промежуткам
Продолжительность промежутка : 42 мс. (1,00 видеокадр)
Время предзагрузки промежутка : 500 мс.

pb.wtf



Скачать Нападение пятиглавой акулы через торрент https://a.radikal.ru/a25/1712/dd/d70fe92d0dd7.jpg Скачать фильм Нападение пятиглавой акулы через торрент бесплантно в хорошем качестве Описание: Сформированная, как морская звезда, пятиглавая акула терроризирует открытый океан. Скоро она вторгнется на пляжи Пуэрто-Рико, ... 7 10 11
Торрент: Зарегистрирован [2017-12-30 20:42] · скачан: 49 раз
Статус: T временная
Размер: 1.37 GB
Как cкачать? Как скачать Нападение пятиглавой акулы через торрент | qTorrent

% Раздел Тема Автор DL S | L
# Фильмы (мультфильмы) cо спонсором показа (Новинки AVI/MKV) [ 3.74 GB ] Нападение пятиглавой акулы / 5 Headed Shark Attack [2017 BDRip 720p] MVO [Синема УС] -Lexx- Скачать
1 | 0

28-11-2019 20:33  

Отключить всю рекламу на сайте

30-12-2017 20:49 Нападение пятиглавой акулы Скачать торрент  

Интересно, о чём думают люди, которые снимаются в такой какашенции...pb.wtf



30-12-2017 20:53 Нападение пятиглавой акулы Скачать торрент  

Till писал(а):

Интересно, о чём думают люди, которые снимаются в такой какашенции...

Об Оскаре.pb.wtf



30-12-2017 21:18 Нападение пятиглавой акулы Скачать торрент  

Till писал(а):

Интересно, о чём думают люди, которые снимаются в такой какашенции...

наверное тоже самое что и те кто смотрит такие "шедевры"pb.wtf



30-12-2017 21:36 Нападение пятиглавой акулы Скачать торрент  

Till писал(а):

Интересно, о чём думают люди, которые снимаются в такой какашенции...

"Надеюсь хотя бы сегодня покормят..."pb.wtf



31-12-2017 06:19 Нападение пятиглавой акулы Скачать торрент  

Ахахах Это же пробитое дно.pb.wtf



31-12-2017 08:11 Нападение пятиглавой акулы Скачать торрент  

Ассилум никак не успокоится?pb.wtf



31-12-2017 09:45 Нападение пятиглавой акулы Скачать торрент  

bober100 писал(а):

Till писал(а):

Интересно, о чём думают люди, которые снимаются в такой какашенции...

Об Оскаре.

pb.wtf



31-12-2017 10:19 Нападение пятиглавой акулы Скачать торрент  

смотрели как то от совсем нефиг делать, акулий торнадо и горные акулы, было довольно смешно, теперь я знаю какое говно смотреть придется, когда смотреть больше нечегоpb.wtf



31-12-2017 11:43 Нападение пятиглавой акулы Скачать торрент  

Релизеру спасибо за старания... но нафига?!pb.wtf



    Дорогой пользователь! Огромная просьба, поблагодарите релизера, оцените раздачу и оставьте свои комментарий, если Вы скачали Нападение пятиглавой акулы через торрент бесплатно! Внесите свою лепту в развитие PiratBit!
    Комментировать посты могут только пользователи прошедшие не сложную регистрацию
    Показать сообщения:    

    Нападение пятиглавой акулы через торрент
    Скачать бесплатно Нападение пятиглавой акулы
    Нападение пятиглавой акулы скачать торрент
    Нападение пятиглавой акулы смотреть онлайн
    Cкачать фильм Нападение пятиглавой акулы бесплатно
    Нападение пятиглавой акулы скачать торрент в хорошем качестве
    Нападение пятиглавой акулы смотреть онлайн бесплатно в хорошем качестве


    Вы не можете начинать темы
    Вы не можете отвечать на сообщения
    Вы не можете редактировать свои сообщения
    Вы не можете удалять свои сообщения
    Вы не можете голосовать в опросах
    Вы не можете прикреплять файлы к сообщениям
    Вы можете скачивать файлы