Ссылка на приватное зеркало нашего сайта всего за 1$. Внимание количество ограничено!!!

2 сезон

iTunes

1 сезон

1

2 сезон

2 сезон

iTunes

1 сезон

RePack

30

Ultimate

ВАЖНО

ИГРА 18+

pack

RePack

MK11
pack

Забери бонус

RePack

jed

!!Акция!!

Alien_Rage

RePack

fifa19

RePack

Assassins Creed: Odyssey

RePack

NEED FOR SPEED™ PAYBACK

4 сезон

9 сезон

Бесстыжие 9 сезон

Все сериалы

все сериалы на PB.wtf

RePack

FAR CRY 5
  

Черное зеркало / Black Mirror / Сезон: 4 / Серии 1-6 из 6 (Тоби Хэйнс) [2017, Великобритания, фантастика, триллер, драма, WEBRip 720p] [BaibaKo] pb.wtf

Черное зеркало через торрент pb.wtf

Размер: 12.04 GB | Добавлен: 2 года 10 мес. назад | Торрент скачан:223 раза
Скачать  

31-12-2017 01:48 Черное зеркало Скачать торрент  

Черное зеркало / Black Mirror


  • Год выпуска: 2017
  • Страна: Великобритания
  • Жанр: фантастика, триллер, драма
  • Продолжительность: ~01:00:00 (Серия)
  • Перевод: Профессиональный многоголосый [BaibaKo]
  • Режиссер: Тоби Хэйнс
  • В ролях:
    Кристин Милиоти, Джесси Племонс, Джимми Симпсон, Михаэла Коэл, Розмари Деуитт, Бренна Хардинг, Оуэн Тиг и др.



  • Четвёртый сезон британского культового шоу «Черное зеркало». Эпизод под заголовком USS Callister представляет собой некое переосмысление «Стартрека», где всё до странности привычно — команда космического судна выполняет очередную миссию под руководством опытного капитана. Серия под названием Arkangel посвящена вопросу тотального контроля — в данном случае родительского. Наука и технологии обещают избавить современное общество от переживаний и неврозов, связанных с обеспечением безопасности подрастающего потомства. Ещё одна часть Black Mirror создавалась силами неплохо зарекомендовавшей себя квестостроительной студии KING Art Games, ответственной за дилогию The Book of Unwritten Tales. Авторы взяли за основу геймплей оригинала, добавили к нему взаимодействие с видениями и сместили акцент на расследование. Что до сюжета, то события Black Mirror происходят куда раньше времени действия оригинала от Future Games. История повествует о Дэвиде Гордоне, которому пришлось вернуться в семейное поместье Чёрное Зеркало после таинственного самоубийства отца.
  • Рейтинг:

    rating
  • Качество: WEBRip 720p
  • Формат: :MKV
  • Видео кодек: AVC
  • Аудио кодек: AC-3
  • Видео: 4327 Кбит/сек, 1280*720 (16:9), в 25,000 кадров/сек, AVC
  • Аудио №1: русский 384 Кбит/сек, 48,0 КГц, 16 бит, 6 каналов, AC-3 |[BaibaKo]|
  • Аудио №2: английский 384 Кбит/сек, 48,0 КГц, 16 бит, 6 каналов, AC-3
  • Релиз от: GEKADOL

    Общее
    Уникальный идентификатор : 276436074170635746962923545002566756220 (0xCFF7A6BB4BBCAB406002D2DE131C277C)
    Полное имя : F:\Черное зеркало (Black Mirror 4) 720\Black.Mirror.s04e06.HD720p.WEBRip.Rus.Eng.BaibaKo.tv.mkv
    Формат : Matroska
    Версия формата : Version 4 / Version 2
    Размер файла : 2,39 Гбайт
    Продолжительность : 1 ч. 7 м.
    Общий поток : 5097 Кбит/сек
    Дата кодирования : UTC 2017-12-31 01:18:41
    Программа кодирования : mkvmerge v19.0.0 ('Brave Captain') 64-bit
    Библиотека кодирования : libebml v1.3.5 + libmatroska v1.4.8
    Writing frontend : StaxRip v1.6.0.0

    Видео
    Идентификатор : 1
    Формат : AVC
    Формат/Информация : Advanced Video Codec
    Профиль формата : High@L3.1
    Настройки формата : CABAC / 3 Ref Frames
    Параметр CABAC формата : Да
    Параметр RefFrames формата : 3 кадра
    Идентификатор кодека : V_MPEG4/ISO/AVC
    Продолжительность : 1 ч. 7 м.
    Битрейт : 4327 Кбит/сек
    Ширина : 1280 пикселей
    Высота : 720 пикселей
    Соотношение сторон : 16:9
    Режим частоты кадров : Постоянный
    Частота кадров : 25,000 кадров/сек
    Цветовое пространство : YUV
    Субдискретизация насыщенности : 4:2:0
    Битовая глубина : 8 бит
    Тип развёртки : Прогрессивная
    Бит/(Пиксели*Кадры) : 0.188
    Размер потока : 2,03 Гбайт (85%)
    Default : Да
    Forced : Нет

    Аудио #1
    Идентификатор : 2
    Формат : AC-3
    Формат/Информация : Audio Coding 3
    Идентификатор кодека : A_AC3
    Продолжительность : 1 ч. 7 м.
    Вид битрейта : Постоянный
    Битрейт : 384 Кбит/сек
    Каналы : 6 каналов
    Расположение каналов : Front: L C R, Side: L R, LFE
    Частота : 48,0 КГц
    Частота кадров : 31,250 кадров/сек (1536 SPF)
    Битовая глубина : 16 бит
    Метод сжатия : С потерями
    Задержка видео : 16 мс.
    Размер потока : 184 Мбайт (8%)
    Язык : Russian
    ServiceKind/String : Complete Main
    Default : Нет
    Forced : Нет

    Аудио #2
    Идентификатор : 3
    Формат : AC-3
    Формат/Информация : Audio Coding 3
    Идентификатор кодека : A_AC3
    Продолжительность : 1 ч. 7 м.
    Вид битрейта : Постоянный
    Битрейт : 384 Кбит/сек
    Каналы : 6 каналов
    Расположение каналов : Front: L C R, Side: L R, LFE
    Частота : 48,0 КГц
    Частота кадров : 31,250 кадров/сек (1536 SPF)
    Битовая глубина : 16 бит
    Метод сжатия : С потерями
    Задержка видео : 16 мс.
    Размер потока : 184 Мбайт (8%)
    Язык : English
    ServiceKind/String : Complete Main
    Default : Нет
    Forced : Нет



    Скриншоты:
    скриншот   скриншот   скриншот   скриншот   скриншот   скриншот   скриншот  
    скриншот  


    pb.wtf



  • Скачать Черное зеркало через торрент http://pic1.kartinco.top/images/11/2nf1d.jpg Скачать фильм Черное зеркало через торрент бесплантно в хорошем качестве qw.png Четвёртый сезон британского культового шоу «Черное зеркало». Эпизод под заголовком USS Callister представляет собой некое ... 10 10 5
    Info! Золотая раздача, скачанное не засчитывается.
    Торрент: Зарегистрирован [2017-12-31 01:48] · скачан: 223 раз
    Статус: √ проверено
    Размер: 12.04 GB
    Как cкачать? Как скачать Черное зеркало через торрент | qTorrent

    % Раздел Тема Автор DL S | L
    Зарубежные сериалы [ 27.34 GB ] Черное зеркало / Black Mirror / Сезон: 4 / Серии: 1-6 из 6 [2017 WEBRip 1080p] [DVO] + 2x[MVO] killermax2013 Скачать
    1 | 0
    Зарубежные сериалы [ 5.21 GB ] Черное зеркало / Black Mirror / Сезон: 4 / Серии: 1-6 из 6 [2017 WEBRip] DVO [Кубик в Кубе] bober100 Скачать
    1 | 0
    Зарубежные сериалы [ 14.53 GB ] Черное зеркало / Black Mirror / Сезон: 4 / Серии: 1-6 из 6 [2017 WEBRip 720p] DVO [Кубик в Кубе] bober100 Скачать
    1 | 0
    Зарубежные сериалы [ 25.46 GB ] Черное зеркало / Black Mirror / Сезон: 4 / Серии: 1-6 из 6 [2017 WEBRip 1080p] DVO [Кубик в Кубе] bober100 Скачать
    1 | 0
    Зарубежные сериалы [ 4.77 GB ] Черное зеркало / Black Mirror / Сезон: 4 / Серии: 1-6 из 6 [2017 WEBRip] [DVO] [Кубик в Кубе] killermax2013 Скачать
    1 | 0
    Зарубежные сериалы [ 13.02 GB ] Черное зеркало / Black Mirror / 4 сезон / 1-6 серия из 6 [2017 WEB-DL 1080p] [MVO] killermax2013 Скачать
    1 | 0
    Зарубежные сериалы [ 4.27 GB ] Черное зеркало / Black Mirror / Сезон: 4 / Серии: 1-6 из 6 [2017 WEBRip] MVO [NewStudio] bober100 Скачать
    1 | 0


    Последний раз редактировалось: GEKADOL (2018-01-08 01:09), всего редактировалось 1 раз

    28-11-2019 20:33  

    Отключить всю рекламу на сайте

    31-12-2017 01:52 Черное зеркало Скачать торрент  

    Всех с наступающим!!!!!!! pb.wtf



    31-12-2017 07:25 Черное зеркало Скачать торрент  

    странно .... фантастику не пропускаю а тут...4 сезон и с таким рейтингом...... . про негра штоль ?)

    и да поддержу !!! pb.wtf



    31-12-2017 13:34 Черное зеркало Скачать торрент  

    Спасибо. На раздаче останусь..
    Жаль не Кубик в Кубе только.. pb.wtf



      Дорогой пользователь! Огромная просьба, поблагодарите релизера, оцените раздачу и оставьте свои комментарий, если Вы скачали Черное зеркало через торрент бесплатно! Внесите свою лепту в развитие PiratBit!
      Комментировать посты могут только пользователи прошедшие не сложную регистрацию
      Показать сообщения:    

      Черное зеркало через торрент
      Скачать бесплатно Черное зеркало
      Черное зеркало скачать торрент
      Черное зеркало смотреть онлайн
      Cкачать фильм Черное зеркало бесплатно
      Черное зеркало скачать торрент в хорошем качестве
      Черное зеркало смотреть онлайн бесплатно в хорошем качестве


      Вы не можете начинать темы
      Вы не можете отвечать на сообщения
      Вы не можете редактировать свои сообщения
      Вы не можете удалять свои сообщения
      Вы не можете голосовать в опросах
      Вы не можете прикреплять файлы к сообщениям
      Вы можете скачивать файлы