Ссылка на приватное зеркало нашего сайта всего за 1$. Внимание количество ограничено!!!

2 сезон

iTunes

1 сезон

1

iTunes

iTunes

iTunes

1 сезон

RePack

30

ИГРА 18+

pack

ВАЖНО

!!Акция!!

Alien_RageХит недели

RePack

MK11
pack

Забери бонус

RePack

jed

!!Акция!!

Alien_Rage

RePack

fifa19

RePack

Assassins Creed: Odyssey

RePack

NEED FOR SPEED™ PAYBACK

4 сезон

9 сезон

Бесстыжие 9 сезон

Все сериалы

все сериалы на PB.wtf

RePack

FAR CRY 5
  

Перекресток / 1-4 серии из 4 (Андрей Селиванов) [2017, Мелодрама, WEB-DLRip] pb.wtf

Перекресток через торрент pb.wtf

Раздают: 1 [ 0 KB/s ]
Размер: 2.73 GB | Добавлен: 2 года 9 мес. назад | Торрент скачан:179 раз
Скачать  

31-12-2017 02:43 Перекресток Скачать торрент  

Перекресток (1-4 серии из 4)Год выпуска: 2017
Страна: Россия
Жанр: Мелодрама
Продолжительность: х ~ 01:30:00 (два файла по две серии)
Субтитры: отсутствуют

Режиссер: Андрей Селиванов

В ролях:

Янина Соколовская, Дарья Лузина, Дарья Петрова, Алексей Фатеев, Константин Стрельников

Описание:

На перекрестке в центре города сталкиваются машины трех женщин: жены бизнесмена Елены, преподавателя художественного колледжа Ольги и курьера пиццерии Светы. Авария незначительная, но все женщины очень спешат и опоздание меняет все. Елена не успевает на самолет, а вернувшись застает своего мужа в постели с секретаршей. Ольга спешит домой, чтобы попрощаться с мужем перед его командировкой, но опаздывает и приезжает прямо на вокзал, где выясняет, что он пропал. Свету увольняют с работы, зарплату вычитают в счет ремонта машины. Теперь девушке не на что жить и нечем платить за съемную квартиру. "Если бы не авария!" – повторяют женщины, сокрушаясь, что тот роковой перекресток сломал им жизнь. Но нет худа без добра. Елена предлагает Ольге и Свете неожиданную работу - на несколько месяцев стать ее наемными подругами с почасовой оплатой...

Качество: WEB-DLRip
Формат: AVI
Видео кодек: XviD
Аудио кодек: AC3

Видео: XviD, ~ 2000 Кбит/с, 720x400
Аудио#1: AC3, 2 ch, 192 Кбит/с
скриншот  скриншот  скриншот  

Общее
Полное имя : D:\Perekrestok.2017.WEB-DLRip.Files-x\01.Perekrestok.2017.WEB-DLRip.Files-x.avi
Формат : AVI
Формат/Информация : Audio Video Interleave
Размер файла : 1,37 Гбайт
Продолжительность : 1 ч. 29 м.
Общий поток : 2198 Кбит/сек
Программа кодирования : VirtualDubMod 1.5.10.3 | www.virtualdub-fr.org || (build 2550/release)
Библиотека кодирования : VirtualDubMod build 2550/release

Видео
Идентификатор : 0
Формат : MPEG-4 Visual
Профиль формата : Advanced Simple@L5
Параметр BVOP формата : 1
Параметр QPel формата : Нет
Параметр GMC формата : Без точки перехода
Параметр матрицы формата : Выборочная
Идентификатор кодека : XVID
Идентификатор кодека/Подсказка : XviD
Продолжительность : 1 ч. 29 м.
Битрейт : 1997 Кбит/сек
Ширина : 720 пикселей
Высота : 400 пикселей
Соотношение сторон : 16:9
Частота кадров : 25,000 кадров/сек
Цветовое пространство : YUV
Субдискретизация насыщенности : 4:2:0
Битовая глубина : 8 бит
Тип развёртки : Прогрессивная
Метод сжатия : С потерями
Бит/(Пиксели*Кадры) : 0.277
Размер потока : 1,24 Гбайт (91%)
Библиотека кодирования : XviD 73

Аудио
Идентификатор : 1
Формат : AC-3
Формат/Информация : Audio Coding 3
Расширение режима : CM (complete main)
Параметр Endianness формата : Big
Идентификатор кодека : 2000
Продолжительность : 1 ч. 29 м.
Вид битрейта : Постоянный
Битрейт : 192 Кбит/сек
Каналы : 2 канала
Расположение каналов : Front: L R
Частота : 48,0 КГц
Частота кадров : 31,250 кадров/сек (1536 spf)
Метод сжатия : С потерями
Размер потока : 123 Мбайт (9%)
Выравнивание : Разделение по промежуткам
Продолжительность промежутка : 40 мс. (1,00 видеокадр)
Время предзагрузки промежутка : 500 мс.

pb.wtf



Скачать Перекресток через торрент http://i102.fastpic.ru/big/2017/1230/63/6a140ebc7883cd752abf828056a07563.jpg Скачать фильм Перекресток через торрент бесплантно в хорошем качестве Описание: На перекрестке в центре города сталкиваются машины трех женщин: жены бизнесмена Елены, преподавателя художественного колледжа ... 10 10 3
Торрент: Зарегистрирован [2017-12-31 02:43] · скачан: 179 раз
Статус: √ проверено
Размер: 2.73 GB
Как cкачать? Как скачать Перекресток через торрент | qTorrent

% Раздел Тема Автор DL S | L
Наши сериалы [ 2.41 GB ] Перекресток / Серия 1-4 из 4 [2017 Мело SATRip] oleg8 Скачать
1 | 0

28-11-2019 20:33  

Отключить всю рекламу на сайте

    Дорогой пользователь! Огромная просьба, поблагодарите релизера, оцените раздачу и оставьте свои комментарий, если Вы скачали Перекресток через торрент бесплатно! Внесите свою лепту в развитие PiratBit!
    Комментировать посты могут только пользователи прошедшие не сложную регистрацию
    Показать сообщения:    

    Перекресток через торрент
    Скачать бесплатно Перекресток
    Перекресток скачать торрент
    Перекресток смотреть онлайн
    Cкачать фильм Перекресток бесплатно
    Перекресток скачать торрент в хорошем качестве
    Перекресток смотреть онлайн бесплатно в хорошем качестве


    Вы не можете начинать темы
    Вы не можете отвечать на сообщения
    Вы не можете редактировать свои сообщения
    Вы не можете удалять свои сообщения
    Вы не можете голосовать в опросах
    Вы не можете прикреплять файлы к сообщениям
    Вы можете скачивать файлы