2 сезон

iTunes

1 сезон

1

iTunes

iTunes

iTunes

1 сезон

RePack

30

ИГРА 18+

pack

ВАЖНО

!!Акция!!

Alien_RageХит недели

RePack

MK11
pack

Забери бонус

RePack

jed

!!Акция!!

Alien_Rage

RePack

fifa19

RePack

Assassins Creed: Odyssey

RePack

NEED FOR SPEED™ PAYBACK

4 сезон

9 сезон

Бесстыжие 9 сезон

Все сериалы

все сериалы на PB.wtf

RePack

FAR CRY 5
  

Неприкасаемые / The Untouchables (Брайан Де Пальма) [1987, триллер, драма, криминал, BDRip 1080p by msltel] 2 x MVO, DVO, 4 x AVO pb.wtf

Неприкасаемые через торрент pb.wtf

Размер: 15.77 GB | Добавлен: 2 года 9 мес. назад | Торрент скачан:41 раз
Скачать  

31-12-2017 07:33 Неприкасаемые Скачать торрент  

Название: Неприкасаемые
Оригинальное название: The Untouchables
Год выпуска: 1987
Страна: США
Жанр: триллер, драма, криминал
Продолжительность: 01:59:27
Перевод: профессиональный многоголосый, профессиональный двухголосый, авторский

Режиссер: Брайан Де Пальма
В ролях: Кевин Костнер, Шон Коннери, Чарльз Мартин Смит, Энди Гарсиа, Роберт Де Ниро, Ричард Брэдфорд, Джек Кихоу, Брэд Салливан, Билли Драго, Патришия Кларксон, Вито Д’Амброзио, Стивен Голдстин, Питер Эйлуорд, Дон Харви, Роберт Суон, Джон Дж. Уолш, Дель Клоуз, Коллин Бэйд, Грег Нунан

О фильме: В основе сюжета борьба полиции с королём преступного мира, знаменитым гангстером Аль Капоне, которого, как известно, удалось засадить за решётку лишь как лицо, уклоняющееся от уплаты налогов. В Чикаго в 1931 годау криминальная жизнь бьёт ключом. Для того чтобы остановить хладнокровного и неуязвимого Аль Капоне, правительством создана специальная команда «Неприкасаемых». Герои Роберта Де Ниро и Шона Коннери вступают в смертельную схватку... Фильм снят по мотивам мемуаров Элиота Несса, написанных Оскаром Фрейли, «Неприкасаемые» (The Untouchables, 1957).



Качество: BDRip 1080p
Формат: MKV
Видео: MPEG-4 AVC, 10.3 Mбит/с, 1920x816
Аудио 1: русский, AC3, 640 kbps, 6 ch, 48 kHz [профессиональный многоголосый, Blu-Ray CEE]
Аудио 2: русский, DTS-ES, 1510 kbps, 7/6 ch, 48 kHz [профессиональный многоголосый, Позитив-Мультимедиа]
Аудио 3: русский, AC3, 192 kbps, 2 ch, 48 kHz [профессиональный двухголосый, HTB]
Аудио 4: русский, AC3, 192 kbps, 2 ch, 48 kHz [авторский, Леонид Володарский]
Аудио 5: русский, DTS-ES, 1510 kbps, 7/6 ch, 48 kHz [авторский, Василий Горчаков]
Аудио 6: русский, DTS-ES, 1510 kbps, 7/6 ch, 48 kHz [авторский, Юрий Живов]
Аудио 7: русский, DTS-ES, 1510 kbps, 7/6 ch, 48 kHz [авторский, Алексей Михалёв]
Аудио 8: английский, DTS-ES, 1510 kbps, 7/6 ch, 48 kHz [оригинал]
Субтитры 1: русские
Субтитры 2: английские
Неименованные главы/чаптеры.
Общее
Уникальный идентификатор : 191410928196824684052546973723314988535 (0x9000676162790A0780545E7CBB79A5F7)
Полное имя : D:\Video\Неприкасаемые.1987.BDRip.1080p by msltel.mkv
Формат : Matroska
Версия формата : Version 4 / Version 2
Размер файла : 15,8 Гбайт
Продолжительность : 1 ч. 59 м.
Общий поток : 18,9 Мбит/сек
Название фильма : Rip by msltel
Дата кодирования : UTC 2017-12-30 15:25:11
Программа кодирования : mkvmerge v8.2.0 ('World of Adventure') 64bit
Библиотека кодирования : libebml v1.3.1 + libmatroska v1.4.2

Видео
Идентификатор : 1
Формат : AVC
Формат/Информация : Advanced Video Codec
Профиль формата : High@L4.1
Настройки формата : CABAC / 4 Ref Frames
Параметр CABAC формата : Да
Параметр RefFrames формата : 4 кадра
Идентификатор кодека : V_MPEG4/ISO/AVC
Продолжительность : 1 ч. 59 м.
Битрейт : 10,3 Мбит/сек
Ширина : 1920 пикселей
Высота : 816 пикселей
Соотношение сторон : 2,35:1
Режим частоты кадров : Постоянный
Частота кадров : 23,976 (24000/1001) кадра/сек
Цветовое пространство : YUV
Субдискретизация насыщенности : 4:2:0
Битовая глубина : 8 бит
Тип развёртки : Прогрессивная
Бит/(Пиксели*Кадры) : 0.275
Размер потока : 8,61 Гбайт (55%)
Библиотека кодирования : x264 core 146 r2538 121396c
Настройки программы : cabac=1 / ref=4 / deblock=1:-3:-2 / analyse=0x3:0x113 / me=umh / subme=11 / psy=1 / psy_rd=1.00:0.15 / mixed_ref=1 / me_range=32 / chroma_me=1 / trellis=2 / 8x8dct=1 / cqm=0 / deadzone=21,11 / fast_pskip=0 / chroma_qp_offset=-3 / threads=6 / lookahead_threads=1 / sliced_threads=0 / nr=0 / decimate=1 / interlaced=0 / bluray_compat=0 / constrained_intra=0 / bframes=8 / b_pyramid=2 / b_adapt=2 / b_bias=0 / direct=1 / weightb=1 / open_gop=0 / weightp=2 / keyint=230 / keyint_min=23 / scenecut=40 / intra_refresh=0 / rc_lookahead=40 / rc=crf / mbtree=0 / crf=16.5 / qcomp=0.60 / qpmin=0 / qpmax=69 / qpstep=4 / vbv_maxrate=62500 / vbv_bufsize=78125 / crf_max=0.0 / nal_hrd=none / filler=0 / ip_ratio=1.40 / pb_ratio=1.30 / aq=1:1.00
Язык : English
Default : Да
Forced : Нет

Аудио #1
Идентификатор : 2
Формат : AC-3
Формат/Информация : Audio Coding 3
Идентификатор кодека : A_AC3
Продолжительность : 1 ч. 59 м.
Вид битрейта : Постоянный
Битрейт : 640 Кбит/сек
Каналы : 6 каналов
Расположение каналов : Front: L C R, Side: L R, LFE
Частота : 48,0 КГц
Частота кадров : 31,250 кадров/сек (1536 SPF)
Битовая глубина : 16 бит
Метод сжатия : С потерями
Размер потока : 547 Мбайт (3%)
Заголовок : MVO.Blu-Ray CEE
Язык : Russian
ServiceKind/String : Complete Main
Default : Да
Forced : Нет

Аудио #2
Идентификатор : 3
Формат : DTS
Формат/Информация : Digital Theater Systems
Профиль формата : ES Discrete / Core
Идентификатор кодека : A_DTS
Продолжительность : 1 ч. 59 м.
Вид битрейта : Постоянный
Битрейт : 1510 Кбит/сек
Каналы : 7 каналов / 6 каналов
Расположение каналов : Front: L C R, Side: L R, Back: C, LFE / Front: L C R, Side: L R, LFE
Частота : 48,0 КГц
Частота кадров : 93,750 кадра/сек (512 SPF)
Битовая глубина : 24 бит
Метод сжатия : С потерями
Размер потока : 1,26 Гбайт (8%)
Заголовок : MVO.Позитив-Мультимедиа
Язык : Russian
Default : Нет
Forced : Нет

Аудио #3
Идентификатор : 4
Формат : AC-3
Формат/Информация : Audio Coding 3
Идентификатор кодека : A_AC3
Продолжительность : 1 ч. 59 м.
Вид битрейта : Постоянный
Битрейт : 192 Кбит/сек
Каналы : 2 канала
Расположение каналов : Front: L R
Частота : 48,0 КГц
Частота кадров : 31,250 кадров/сек (1536 SPF)
Битовая глубина : 16 бит
Метод сжатия : С потерями
Размер потока : 164 Мбайт (1%)
Заголовок : DVO.HTB
Язык : Russian
ServiceKind/String : Complete Main
Default : Нет
Forced : Нет

Аудио #4
Идентификатор : 5
Формат : AC-3
Формат/Информация : Audio Coding 3
Идентификатор кодека : A_AC3
Продолжительность : 1 ч. 59 м.
Вид битрейта : Постоянный
Битрейт : 192 Кбит/сек
Каналы : 2 канала
Расположение каналов : Front: L R
Частота : 48,0 КГц
Частота кадров : 31,250 кадров/сек (1536 SPF)
Битовая глубина : 16 бит
Метод сжатия : С потерями
Размер потока : 164 Мбайт (1%)
Заголовок : Леонид Володарский
Язык : Russian
ServiceKind/String : Complete Main
Default : Нет
Forced : Нет

Аудио #5
Идентификатор : 6
Формат : DTS
Формат/Информация : Digital Theater Systems
Профиль формата : ES Discrete / Core
Идентификатор кодека : A_DTS
Продолжительность : 1 ч. 59 м.
Вид битрейта : Постоянный
Битрейт : 1509 Кбит/сек
Каналы : 7 каналов / 6 каналов
Расположение каналов : Front: L C R, Side: L R, Back: C, LFE / Front: L C R, Side: L R, LFE
Частота : 48,0 КГц
Частота кадров : 93,750 кадра/сек (512 SPF)
Битовая глубина : 24 бит
Метод сжатия : С потерями
Размер потока : 1,26 Гбайт (8%)
Заголовок : Василий Горчаков
Язык : Russian
Default : Нет
Forced : Нет

Аудио #6
Идентификатор : 7
Формат : DTS
Формат/Информация : Digital Theater Systems
Профиль формата : ES Discrete / Core
Идентификатор кодека : A_DTS
Продолжительность : 1 ч. 59 м.
Вид битрейта : Постоянный
Битрейт : 1509 Кбит/сек
Каналы : 7 каналов / 6 каналов
Расположение каналов : Front: L C R, Side: L R, Back: C, LFE / Front: L C R, Side: L R, LFE
Частота : 48,0 КГц
Частота кадров : 93,750 кадра/сек (512 SPF)
Битовая глубина : 24 бит
Метод сжатия : С потерями
Размер потока : 1,26 Гбайт (8%)
Заголовок : Юрий Живов
Язык : Russian
Default : Нет
Forced : Нет

Аудио #7
Идентификатор : 8
Формат : DTS
Формат/Информация : Digital Theater Systems
Профиль формата : ES Discrete / Core
Идентификатор кодека : A_DTS
Продолжительность : 1 ч. 59 м.
Вид битрейта : Постоянный
Битрейт : 1509 Кбит/сек
Каналы : 7 каналов / 6 каналов
Расположение каналов : Front: L C R, Side: L R, Back: C, LFE / Front: L C R, Side: L R, LFE
Частота : 48,0 КГц
Частота кадров : 93,750 кадра/сек (512 SPF)
Битовая глубина : 24 бит
Метод сжатия : С потерями
Размер потока : 1,26 Гбайт (8%)
Заголовок : Алексей Михалёв
Язык : Russian
Default : Нет
Forced : Нет

Аудио #8
Идентификатор : 9
Формат : DTS
Формат/Информация : Digital Theater Systems
Профиль формата : ES Discrete / Core
Идентификатор кодека : A_DTS
Продолжительность : 1 ч. 59 м.
Вид битрейта : Постоянный
Битрейт : 1509 Кбит/сек
Каналы : 7 каналов / 6 каналов
Расположение каналов : Front: L C R, Side: L R, Back: C, LFE / Front: L C R, Side: L R, LFE
Частота : 48,0 КГц
Частота кадров : 93,750 кадра/сек (512 SPF)
Битовая глубина : 24 бит
Метод сжатия : С потерями
Размер потока : 1,26 Гбайт (8%)
Заголовок : original
Язык : English
Default : Нет
Forced : Нет

Текст #1
Идентификатор : 10
Формат : UTF-8
Идентификатор кодека : S_TEXT/UTF8
Идентификатор кодека/Информация : UTF-8 Plain Text
Продолжительность : 1 ч. 54 м.
Битрейт : 73 бит/сек
ElementCount : 1093
Размер потока : 61,2 Кбайт (0%)
Заголовок : русские
Язык : Russian
Default : Нет
Forced : Нет

Текст #2
Идентификатор : 11
Формат : UTF-8
Идентификатор кодека : S_TEXT/UTF8
Идентификатор кодека/Информация : UTF-8 Plain Text
Продолжительность : 1 ч. 52 м.
Битрейт : 47 бит/сек
ElementCount : 1055
Размер потока : 39,2 Кбайт (0%)
Заголовок : английские
Язык : English
Default : Нет
Forced : Нет

Меню
00:00:00.000 : :Chapter 01
00:02:43.829 : :Chapter 02
00:06:42.193 : :Chapter 03
00:08:17.371 : :Chapter 04
00:10:40.097 : :Chapter 05
00:16:00.501 : :Chapter 06
00:19:39.219 : :Chapter 07
00:23:13.308 : :Chapter 08
00:29:40.320 : :Chapter 09
00:34:01.080 : :Chapter 10
00:36:01.074 : :Chapter 11
00:41:03.252 : :Chapter 12
00:43:27.688 : :Chapter 13
00:47:33.058 : :Chapter 14
01:01:35.274 : :Chapter 15
01:08:18.219 : :Chapter 16
01:17:17.758 : :Chapter 17
01:18:34.792 : :Chapter 18
01:22:12.761 : :Chapter 19
01:26:22.844 : :Chapter 20
01:35:58.919 : :Chapter 21
01:39:09.944 : :Chapter 22
01:47:21.351 : :Chapter 23
01:55:30.173 : :Chapter 24
01:59:26.909 : :Chapter 25
pb.wtf



Скачать Неприкасаемые через торрент https://a.radikal.ru/a28/1712/4d/48f62358b9d9.jpg Скачать фильм Неприкасаемые через торрент бесплантно в хорошем качестве О фильме: В основе сюжета борьба полиции с королём преступного мира, знаменитым гангстером Аль Капоне, которого, как известно, удалось ... 8.2 10 5
Info! Золотая раздача, скачанное не засчитывается.
Торрент: Зарегистрирован [2017-12-31 07:33] · скачан: 41 раз
Статус: √ проверено
Размер: 15.77 GB
Как cкачать? Как скачать Неприкасаемые через торрент | qTorrent

% Раздел Тема Автор DL S | L
Фильмы [HD 720p, 1080p] (Хороший звук DUB, MVO) [ 6.08 GB ] Неприкасаемые / The Untouchables [1987 BDRip 720p by msltel] 2 x MVO DVO 4 x AVO msltel Скачать
1 | 0

28-11-2019 20:33  

Отключить всю рекламу на сайте

    Дорогой пользователь! Огромная просьба, поблагодарите релизера, оцените раздачу и оставьте свои комментарий, если Вы скачали Неприкасаемые через торрент бесплатно! Внесите свою лепту в развитие PiratBit!
    Комментировать посты могут только пользователи прошедшие не сложную регистрацию
    Показать сообщения:    

    Неприкасаемые через торрент
    Скачать бесплатно Неприкасаемые
    Неприкасаемые скачать торрент
    Неприкасаемые смотреть онлайн
    Cкачать фильм Неприкасаемые бесплатно
    Неприкасаемые скачать торрент в хорошем качестве
    Неприкасаемые смотреть онлайн бесплатно в хорошем качестве


    Вы не можете начинать темы
    Вы не можете отвечать на сообщения
    Вы не можете редактировать свои сообщения
    Вы не можете удалять свои сообщения
    Вы не можете голосовать в опросах
    Вы не можете прикреплять файлы к сообщениям
    Вы можете скачивать файлы