Ссылка на приватное зеркало нашего сайта всего за 1$. Внимание количество ограничено!!!

2 сезон

iTunes

1 сезон

1

2 сезон

2 сезон

iTunes

1 сезон

RePack

30

Ultimate

ВАЖНО

ИГРА 18+

pack

RePack

MK11
pack

Забери бонус

RePack

jed

!!Акция!!

Alien_Rage

RePack

fifa19

RePack

Assassins Creed: Odyssey

RePack

NEED FOR SPEED™ PAYBACK

4 сезон

9 сезон

Бесстыжие 9 сезон

Все сериалы

все сериалы на PB.wtf

RePack

FAR CRY 5
  

Хроники Франкенштейна / The Frankenstein Chronicles / Сезон 2 / Серии 1-6 из 6 (Бенжамин Росс) [2017, драма, криминал, HDTVRip 720p, WEBRip 720p] MVO [Good People] pb.wtf

Хроники Франкенштейна через торрент pb.wtf

Размер: 4.26 GB | Добавлен: 2 года 10 мес. назад | Торрент скачан:65 раз
Скачать  

31-12-2017 08:44 Хроники Франкенштейна Скачать торрент  

Хроники Франкенштейна / The Frankenstein ChroniclesГод выпуска: 2017
Страна: Великобритания
Жанр: драма, криминал
Продолжительность: ~ 00:45:00
Перевод: Профессиональный многоголосый - Good People
Субтитры: отсутствуют

Режиссер: Бенжамин Росс

rating

В ролях:

Шон Бин, Мэгги Кронин, Шон Блэйни, Брирс Энтони, Johnny Hamilton, Бобби Марно, Walter McCabe, Ross McKinney, Энтони Моррис, Дарраг О Коннор

Описание:

Инспектор полиции Джон Марлотт разыскивает маньяка, возомнившего себя Франкенштейном. Злодей воплощает действия книжного доктора в реальность — создает монстра из частей человеческих тел. Марлотт, обнаруживший одно из ужасных созданий убийцы, вынужден работать тайно и в одиночку бродить по Лондону 19-го века в поисках чудовища.

Качество: HDTVRip 720p, WEBRip 720p
Формат: MKV
Видео кодек: H.264
Аудио кодек: AC3/AAC

Видео: AVC, 1280x720 (16:9), 25 fps, 1600kbps, 0.069 bit/pixel
Аудио#1: (русская дорожка): Dolby AC3 48000Hz stereo 192 Kbps
Аудио#2: (оригинал): Dolby AC3 48000Hz stereo 384 Kbps (1-2 серия), AAC 44100Hz stereo 90 Kbps (3-6 серия)
скриншот  скриншот  скриншот  

Общее
Уникальный идентификатор : 227284642922978344901681249641254783005 (0xAAFD6E128B7D64D09D1D4008E24E881D)
Полное имя : D:\The Frankenstein Chronicles. Season 2 (WEBRip l 720p l Good People)\The.Frankenstein.Chronicles.S02E01.Prodigal.Son.720p.HDTVRip.DD2.0.H.264-GoodPeople.mkv
Формат : Matroska
Версия формата : Version 2
Размер файла : 678 Мбайт
Продолжительность : 43 м. 1 с.
Общий поток : 2201 Кбит/сек
Дата кодирования : UTC 2017-12-30 19:53:47
Программа кодирования : mkvmerge v5.4.0 ('Piper') built on Mar 10 2012 13:34:39
Библиотека кодирования : libebml v1.2.3 + libmatroska v1.3.0

Видео
Идентификатор : 1
Формат : AVC
Формат/Информация : Advanced Video Codec
Профиль формата : High@L4.1
Параметр CABAC формата : Да
Параметр ReFrames формата : 5 кадров
Идентификатор кодека : V_MPEG4/ISO/AVC
Продолжительность : 43 м. 1 с.
Битрейт : 1582 Кбит/сек
Ширина : 1280 пикселей
Высота : 720 пикселей
Соотношение сторон : 16:9
Режим частоты кадров : Постоянный
Частота кадров : 25,000 кадров/сек
Цветовое пространство : YUV
Субдискретизация насыщенности : 4:2:0
Битовая глубина : 8 бит
Тип развёртки : Прогрессивная
Бит/(Пиксели*Кадры) : 0.069
Размер потока : 487 Мбайт (72%)
Библиотека кодирования : x264 core 152 r2851 ba24899
Настройки программы : cabac=1 / ref=5 / deblock=1:-3:-3 / analyse=0x3:0x113 / me=umh / subme=9 / psy=1 / psy_rd=1.00:0.00 / mixed_ref=1 / me_range=16 / chroma_me=1 / trellis=2 / 8x8dct=1 / cqm=0 / deadzone=21,11 / fast_pskip=0 / chroma_qp_offset=-2 / threads=12 / lookahead_threads=1 / sliced_threads=0 / nr=0 / decimate=1 / interlaced=0 / bluray_compat=0 / constrained_intra=0 / bframes=3 / b_pyramid=2 / b_adapt=2 / b_bias=0 / direct=3 / weightb=1 / open_gop=0 / weightp=2 / keyint=250 / keyint_min=25 / scenecut=40 / intra_refresh=0 / rc_lookahead=50 / rc=crf / mbtree=1 / crf=18.0 / qcomp=0.60 / qpmin=0 / qpmax=69 / qpstep=4 / ip_ratio=1.40 / aq=1:1.00
Язык : English
Default : Да
Forced : Нет

Аудио #1
Идентификатор : 2
Формат : AC-3
Формат/Информация : Audio Coding 3
Расширение режима : CM (complete main)
Параметр Endianness формата : Big
Идентификатор кодека : A_AC3
Продолжительность : 43 м. 1 с.
Вид битрейта : Постоянный
Битрейт : 192 Кбит/сек
Каналы : 2 канала
Расположение каналов : Front: L R
Частота : 48,0 КГц
Частота кадров : 31,250 кадров/сек (1536 spf)
Метод сжатия : С потерями
Размер потока : 59,1 Мбайт (9%)
Язык : Russian
Default : Да
Forced : Нет

Аудио #2
Идентификатор : 3
Формат : AC-3
Формат/Информация : Audio Coding 3
Расширение режима : CM (complete main)
Параметр Endianness формата : Big
Идентификатор кодека : A_AC3
Продолжительность : 43 м. 1 с.
Вид битрейта : Постоянный
Битрейт : 384 Кбит/сек
Каналы : 2 канала
Расположение каналов : Front: L R
Частота : 48,0 КГц
Частота кадров : 31,250 кадров/сек (1536 spf)
Метод сжатия : С потерями
Размер потока : 118 Мбайт (17%)
Язык : English
Default : Нет
Forced : Нет

pb.wtf



Скачать Хроники Франкенштейна через торрент http://i103.fastpic.ru/big/2017/1231/64/c7f77fda9ab64c650393385332691164.png Скачать фильм Хроники Франкенштейна через торрент бесплантно в хорошем качестве Описание: Инспектор полиции Джон Марлотт разыскивает маньяка, возомнившего себя Франкенштейном. Злодей воплощает действия книжного доктора ... 10 10 6
Торрент: Зарегистрирован [2017-12-31 08:44] · скачан: 65 раз
Статус: √ проверено
Размер: 4.26 GB
Как cкачать? Как скачать Хроники Франкенштейна через торрент | qTorrent

% Раздел Тема Автор DL S | L
Зарубежные сериалы [ 7.47 GB ] Хроники Франкенштейна / The Frankenstein Chronicles / Сезон: 2 / Серии: 1-6 из 6 [2017 WEB-DL 1080p] 2xMVO [LostFilm Good People] bober100 Скачать
1 | 0
Зарубежные сериалы [ 3.43 GB ] Хроники Франкенштейна / The Frankenstein Chronicles / Сезон 2 / Серии 1-6 из 6 [2017 WEBRip] MVO [BaibaKo] bober100 Скачать
1 | 0
Зарубежные сериалы [ 5.52 GB ] Хроники Франкенштейна / The Frankenstein Chronicles / Сезон 2 / Серии 1-6 из 6 [2017 WEBRip 720p] MVO [BaibaKo] bober100 Скачать
1 | 0

28-11-2019 20:33  

Отключить всю рекламу на сайте

    Дорогой пользователь! Огромная просьба, поблагодарите релизера, оцените раздачу и оставьте свои комментарий, если Вы скачали Хроники Франкенштейна через торрент бесплатно! Внесите свою лепту в развитие PiratBit!
    Комментировать посты могут только пользователи прошедшие не сложную регистрацию
    Показать сообщения:    

    Хроники Франкенштейна через торрент
    Скачать бесплатно Хроники Франкенштейна
    Хроники Франкенштейна скачать торрент
    Хроники Франкенштейна смотреть онлайн
    Cкачать фильм Хроники Франкенштейна бесплатно
    Хроники Франкенштейна скачать торрент в хорошем качестве
    Хроники Франкенштейна смотреть онлайн бесплатно в хорошем качестве


    Вы не можете начинать темы
    Вы не можете отвечать на сообщения
    Вы не можете редактировать свои сообщения
    Вы не можете удалять свои сообщения
    Вы не можете голосовать в опросах
    Вы не можете прикреплять файлы к сообщениям
    Вы можете скачивать файлы