Ссылка на приватное зеркало нашего сайта всего за 1$. Внимание количество ограничено!!!

2 сезон

iTunes

1 сезон

1

iTunes

iTunes

iTunes

1 сезон

RePack

30

ИГРА 18+

pack

ВАЖНО

!!Акция!!

Alien_RageХит недели

RePack

MK11
pack

Забери бонус

RePack

jed

!!Акция!!

Alien_Rage

RePack

fifa19

RePack

Assassins Creed: Odyssey

RePack

NEED FOR SPEED™ PAYBACK

4 сезон

9 сезон

Бесстыжие 9 сезон

Все сериалы

все сериалы на PB.wtf

RePack

FAR CRY 5
  

Очень страшное кино 2 / Scary Movie 2 (Кинен Айвори Уайанс) [2001, комедия, BDRip 1080p by msltel] DUB, MVO, 2 x AVO pb.wtf

Очень страшное кино 2 через торрент pb.wtf

Размер: 11.93 GB | Добавлен: 2 года 9 мес. назад | Торрент скачан:45 раз
Скачать  

31-12-2017 09:16 Очень страшное кино 2 Скачать торрент  

Название: Очень страшное кино 2
Оригинальное название: Scary Movie 2
Год выпуска: 2001
Страна: США, Канада
Жанр: комедия
Продолжительность: 01:22:25
Перевод: дублированный, профессиональный многоголосый, авторский

Режиссер: Кинен Айвори Уайанс
В ролях: Анна Фэрис, Марлон Уайанс, Джеймс ДеБелло, Шон Уайанс, Дэвид Кросс, Реджина Холл, Кристофер Мастерсон, Тим Карри, Кэтлин Робертсон, Крис Эллиотт, Джеймс Вудс, Энди Рихтер, Тори Спеллинг, Наташа Лионн, Вероника Картрайт, Ричард Молл, Энтони Экер, Марк Баррет, Ричард Беллос, Сюзанн Бьянки, Натали Боско, Джоан Коннор, Брэд Фишер, Сюзанн О’Доннелл, Кристи Пирс, Донна Сильверберг, Хелен Стрейер, Ли Р. Майес, Роберт Шиммель, Корделия Рейнхард, Мэтт Фридман, Сули МакКалло, Дженнифер Каррен, Битлджюс

О фильме: Отыгравшись по полной программе в фильме «Очень страшное кино» на молодёжных ужастиках, создатели картины окончательно потеряли стыд и совесть. Теперь пришла очередь киноклассики - «Изгоняющий дьявола», «Полтергейст», «Кладбище домашних животных» и таких блокбастеров, как «Ангелы Чарли», «Миссия невыполнима 2», «Что скрывает ложь», «Ганнибал», «Призрак дома на холме». Мало не покажется...



Качество: BDRip 1080p
Формат: MKV
Видео: MPEG-4 AVC, 16.4 Mбит/с, 1920x1080
Аудио 1: русский, AC3, 448 kbps, 6 ch, 48 kHz [дублированный]
Аудио 2: русский, AC3, 384 kbps, 6 ch, 48 kHz [профессиональный многоголосый]
Аудио 3: русский, AC3, 448 kbps, 6 ch, 48 kHz [авторский, Евгений Гранкин]
Аудио 4: русский, DTS, 1509 kbps, 6 ch, 48 kHz [авторский, Дмитрий Есарев]
Аудио 5: английский, DTS, 1509 kbps, 6 ch, 48 kHz [оригинал]
Субтитры 1: русские
Субтитры 2: английские
Неименованные главы/чаптеры.
Общее
Уникальный идентификатор : 204478640632080643560218714819029857221 (0x99D52758C216E179B122509F7E0373C5)
Полное имя : D:\Video\Очень страшное кино 2.2001.BDRip.1080p by msltel.mkv
Формат : Matroska
Версия формата : Version 4 / Version 2
Размер файла : 11,9 Гбайт
Продолжительность : 1 ч. 22 м.
Общий поток : 20,7 Мбит/сек
Название фильма : Rip by msltel
Дата кодирования : UTC 2017-12-31 03:23:42
Программа кодирования : mkvmerge v8.2.0 ('World of Adventure') 64bit
Библиотека кодирования : libebml v1.3.1 + libmatroska v1.4.2

Видео
Идентификатор : 1
Формат : AVC
Формат/Информация : Advanced Video Codec
Профиль формата : High@L4.1
Настройки формата : CABAC / 4 Ref Frames
Параметр CABAC формата : Да
Параметр RefFrames формата : 4 кадра
Идентификатор кодека : V_MPEG4/ISO/AVC
Продолжительность : 1 ч. 22 м.
Битрейт : 16,4 Мбит/сек
Ширина : 1920 пикселей
Высота : 1080 пикселей
Соотношение сторон : 16:9
Режим частоты кадров : Постоянный
Частота кадров : 23,976 (24000/1001) кадра/сек
Цветовое пространство : YUV
Субдискретизация насыщенности : 4:2:0
Битовая глубина : 8 бит
Тип развёртки : Прогрессивная
Бит/(Пиксели*Кадры) : 0.330
Размер потока : 9,45 Гбайт (79%)
Библиотека кодирования : x264 core 146 r2538 121396c
Настройки программы : cabac=1 / ref=4 / deblock=1:-3:-2 / analyse=0x3:0x113 / me=umh / subme=11 / psy=1 / psy_rd=1.00:0.15 / mixed_ref=1 / me_range=32 / chroma_me=1 / trellis=2 / 8x8dct=1 / cqm=0 / deadzone=21,11 / fast_pskip=0 / chroma_qp_offset=-3 / threads=6 / lookahead_threads=1 / sliced_threads=0 / nr=0 / decimate=1 / interlaced=0 / bluray_compat=0 / constrained_intra=0 / bframes=8 / b_pyramid=2 / b_adapt=2 / b_bias=0 / direct=1 / weightb=1 / open_gop=0 / weightp=2 / keyint=230 / keyint_min=23 / scenecut=40 / intra_refresh=0 / rc_lookahead=40 / rc=crf / mbtree=0 / crf=17.8 / qcomp=0.60 / qpmin=0 / qpmax=69 / qpstep=4 / vbv_maxrate=62500 / vbv_bufsize=78125 / crf_max=0.0 / nal_hrd=none / filler=0 / ip_ratio=1.40 / pb_ratio=1.30 / aq=1:1.00
Язык : English
Default : Да
Forced : Нет

Аудио #1
Идентификатор : 2
Формат : AC-3
Формат/Информация : Audio Coding 3
Идентификатор кодека : A_AC3
Продолжительность : 1 ч. 22 м.
Вид битрейта : Постоянный
Битрейт : 448 Кбит/сек
Каналы : 6 каналов
Расположение каналов : Front: L C R, Side: L R, LFE
Частота : 48,0 КГц
Частота кадров : 31,250 кадров/сек (1536 SPF)
Битовая глубина : 16 бит
Метод сжатия : С потерями
Размер потока : 265 Мбайт (2%)
Заголовок : DUB
Язык : Russian
ServiceKind/String : Complete Main
Default : Да
Forced : Нет

Аудио #2
Идентификатор : 3
Формат : AC-3
Формат/Информация : Audio Coding 3
Идентификатор кодека : A_AC3
Продолжительность : 1 ч. 22 м.
Вид битрейта : Постоянный
Битрейт : 384 Кбит/сек
Каналы : 6 каналов
Расположение каналов : Front: L C R, Side: L R, LFE
Частота : 48,0 КГц
Частота кадров : 31,250 кадров/сек (1536 SPF)
Битовая глубина : 16 бит
Метод сжатия : С потерями
Размер потока : 227 Мбайт (2%)
Заголовок : MVO
Язык : Russian
ServiceKind/String : Complete Main
Default : Нет
Forced : Нет

Аудио #3
Идентификатор : 4
Формат : AC-3
Формат/Информация : Audio Coding 3
Идентификатор кодека : A_AC3
Продолжительность : 1 ч. 22 м.
Вид битрейта : Постоянный
Битрейт : 448 Кбит/сек
Каналы : 6 каналов
Расположение каналов : Front: L C R, Side: L R, LFE
Частота : 48,0 КГц
Частота кадров : 31,250 кадров/сек (1536 SPF)
Битовая глубина : 16 бит
Метод сжатия : С потерями
Размер потока : 265 Мбайт (2%)
Заголовок : Евгений Гранкин
Язык : Russian
ServiceKind/String : Complete Main
Default : Нет
Forced : Нет

Аудио #4
Идентификатор : 5
Формат : DTS
Формат/Информация : Digital Theater Systems
Идентификатор кодека : A_DTS
Продолжительность : 1 ч. 22 м.
Вид битрейта : Постоянный
Битрейт : 1509 Кбит/сек
Каналы : 6 каналов
Расположение каналов : Front: L C R, Side: L R, LFE
Частота : 48,0 КГц
Частота кадров : 93,750 кадра/сек (512 SPF)
Битовая глубина : 24 бит
Метод сжатия : С потерями
Размер потока : 892 Мбайт (7%)
Заголовок : Дмитрий Есарев
Язык : Russian
Default : Нет
Forced : Нет

Аудио #5
Идентификатор : 6
Формат : DTS
Формат/Информация : Digital Theater Systems
Идентификатор кодека : A_DTS
Продолжительность : 1 ч. 22 м.
Вид битрейта : Постоянный
Битрейт : 1509 Кбит/сек
Каналы : 6 каналов
Расположение каналов : Front: L C R, Side: L R, LFE
Частота : 48,0 КГц
Частота кадров : 93,750 кадра/сек (512 SPF)
Битовая глубина : 24 бит
Метод сжатия : С потерями
Размер потока : 892 Мбайт (7%)
Заголовок : original
Язык : English
Default : Нет
Forced : Нет

Текст #1
Идентификатор : 7
Формат : UTF-8
Идентификатор кодека : S_TEXT/UTF8
Идентификатор кодека/Информация : UTF-8 Plain Text
Продолжительность : 1 ч. 16 м.
Битрейт : 95 бит/сек
ElementCount : 842
Размер потока : 53,2 Кбайт (0%)
Заголовок : русские
Язык : Russian
Default : Нет
Forced : Нет

Текст #2
Идентификатор : 8
Формат : UTF-8
Идентификатор кодека : S_TEXT/UTF8
Идентификатор кодека/Информация : UTF-8 Plain Text
Продолжительность : 1 ч. 13 м.
Битрейт : 61 бит/сек
ElementCount : 1138
Размер потока : 33,1 Кбайт (0%)
Заголовок : английские
Язык : English
Default : Нет
Forced : Нет

Меню
00:00:00.000 : :Chapter 01
00:02:07.210 : :Chapter 02
00:07:41.627 : :Chapter 03
00:15:12.745 : :Chapter 04
00:20:29.186 : :Chapter 05
00:23:18.355 : :Chapter 06
00:28:19.322 : :Chapter 07
00:34:07.962 : :Chapter 08
00:39:03.090 : :Chapter 09
00:44:40.803 : :Chapter 10
00:48:35.704 : :Chapter 11
00:51:09.149 : :Chapter 12
00:56:06.780 : :Chapter 13
00:59:39.075 : :Chapter 14
01:01:05.411 : :Chapter 15
01:06:31.612 : :Chapter 16
01:22:34.240 : :Chapter 17
pb.wtf



Скачать Очень страшное кино 2 через торрент https://a.radikal.ru/a39/1712/21/93e77ffa4db3.jpg Скачать фильм Очень страшное кино 2 через торрент бесплантно в хорошем качестве О фильме: Отыгравшись по полной программе в фильме «Очень страшное кино» на молодёжных ужастиках, создатели картины окончательно потеряли ... 10 10 6
Info! Золотая раздача, скачанное не засчитывается.
Торрент: Зарегистрирован [2017-12-31 09:16] · скачан: 45 раз
Статус: √ проверено
Размер: 11.93 GB
Как cкачать? Как скачать Очень страшное кино 2 через торрент | qTorrent

% Раздел Тема Автор DL S | L
Фильмы [HD 720p, 1080p] (Хороший звук DUB, MVO) [ 4.86 GB ] Очень страшное кино 2 / Scary Movie 2 [2001 BDRip 720p by msltel] DUB MVO 2 x AVO msltel Скачать
1 | 0

28-11-2019 20:33  

Отключить всю рекламу на сайте

    Дорогой пользователь! Огромная просьба, поблагодарите релизера, оцените раздачу и оставьте свои комментарий, если Вы скачали Очень страшное кино 2 через торрент бесплатно! Внесите свою лепту в развитие PiratBit!
    Комментировать посты могут только пользователи прошедшие не сложную регистрацию
    Показать сообщения:    

    Очень страшное кино 2 через торрент
    Скачать бесплатно Очень страшное кино 2
    Очень страшное кино 2 скачать торрент
    Очень страшное кино 2 смотреть онлайн
    Cкачать фильм Очень страшное кино 2 бесплатно
    Очень страшное кино 2 скачать торрент в хорошем качестве
    Очень страшное кино 2 смотреть онлайн бесплатно в хорошем качестве


    Вы не можете начинать темы
    Вы не можете отвечать на сообщения
    Вы не можете редактировать свои сообщения
    Вы не можете удалять свои сообщения
    Вы не можете голосовать в опросах
    Вы не можете прикреплять файлы к сообщениям
    Вы можете скачивать файлы