2 сезон

iTunes

MVO

1

2 сезон

iTunes

iTunes

1 сезон

RePack

30

Новинка

ВАЖНО

ИГРА 18+

pack

RePack

MK11
pack

Легкие деньги

RePack

jed

RePack

fifa19

RePack

RDR2

RePack

NEED FOR SPEED™ PAYBACK

4 сезон

9 сезон

Бесстыжие 9 сезон

Все сериалы

все сериалы на PB.wtf

RePack

FAR CRY 5

Anonymous, добрый вечер, мы не успеваем собрать деньги на оплату серверов за декабрь и январь, помогите нам пожалуйста в это трудное время. В качестве благодарности мы отключим Вам всю рекламу на сайте (укажите свой ник в строку Ваше имя)!

×
  
Magnet ссылка

VA - Лучшие музыкальные клипы 2017 года [2017 г., pop, dance, WEBRip 1080p] pb.wtf

VA - Лучшие музыкальные клипы 2017 года через торрент pb.wtf

Размер: 1.47 GB | Добавлен: 3 года назад | Торрент скачан:415 раз
Скачать  

31-12-2017 12:50 VA - Лучшие музыкальные клипы 2017 года Скачать торрент  

VA - Лучшие музыкальные клипы 2017 года


Год выпуска: 2017
Страна: Россия
Жанр: pop, dance
Продолжительность: 02:37:59
1. Нюша - Я не боюсь
2. Даша Суворова - Кабриолеты
3. Слава - Заметает зима
4. Ellie Lil - Voda
5. Подольская - Ни много ни мало
6. Кравц ft. Градусы - Выходи за меня
7. Фадеев ft. Эмин - Прости моя любовь
8. Данте - Тесно
9. Доминик Джокер ft. EDGAR - Украду любовь
10. Слава - Однажды ты
11. Ани Лорак ft. Эмин - Проститься
12. Сесарев - Неприлично
13. Воробьев - Я тебя люблю
14. IVAN - Чужая
15. Пирожков - Либо любовь
16. Эмин - В пробках
17. Swanky Tunes ft. The Pakanit - Chipa-Lipa
18. Vanotek ft. Eneli - Tell me who
19. Согдиана - Неделимы
20. Arilena Ara - I'm sorry
21. Семенович - Хочу быть с тобой
22. Sasha Zhulina - Влюбилась
23. Куценко ft. IOWA - One-Two
24. Эмин - Испания.Лето
25. Рамм ft. Kolyas - Хватит духу
26. Билан - Лабиринты
27. Киркоров - Химера
28. Aslan Ahmadov - Эхо любви
29. Апина - Девушка Бонда
30. Эмин - Good love
31. Ms.Sounday - Я сберегу
32. Билан - В твоей голове
33. Абдулкарим ft. Loren - ты есть
34. Кравц ft. Сесарев - Настоящий секс
35. Алексей Чадов - Не страшно
36. Воробьев - Я просто хочу приехать
37. DATO - Если это не любовь
38. Градусы - Хочется
39. LP - Other people
40. Lanskoy ft. Co. - Корабли ушли..?
Качество: WEBRip 1080p
Формат: MPEG-4
Видео кодек: H.264
Аудио кодек: AAC
Видео: 1920x1080, 30.000 fps, ~1 199 Kbps
Аудио: AAC, 2 ch, 126 Kbps, 44.1 KHz
скриншот  скриншот  скриншот  скриншот  скриншот  

F:\Клипы\Лучшие музыкальные клипы 2017 года.mp4
General
Complete name : F:\Клипы\Лучшие музыкальные клипы 2017 года.mp4
Format : MPEG-4
Format profile : Base Media
Codec ID : isom
File size : 1.47 GiB
Duration : 2h 37mn
Overall bit rate : 1 332 Kbps
Writing application : Lavf57.2.100
Video #1
ID : 1
Format : AVC
Format/Info : Advanced Video Codec
Format profile : High@L4.0
Format settings, CABAC : Yes
Format settings, ReFrames : 3 frames
Codec ID : avc1
Codec ID/Info : Advanced Video Coding
Duration : 2h 37mn
Bit rate mode : Variable
Bit rate : 1 199 Kbps
Width : 1 920 pixels
Height : 1 080 pixels
Display aspect ratio : 16:9
Frame rate mode : Constant
Frame rate : 30.000 fps
Resolution : 24 bits
Colorimetry : 4:2:0
Scan type : Progressive
Bits/(Pixel*Frame) : 0.019
Stream size : 1.32 GiB (90%)
colour_primaries : BT.709-5, BT.1361, IEC 61966-2-4, SMPTE RP177
transfer_characteristics : BT.709-5, BT.1361
matrix_coefficients : BT.709-5, BT.1361, IEC 61966-2-4 709, SMPTE RP177
Audio #2
ID : 2
Format : AAC
Format/Info : Advanced Audio Codec
Format version : Version 4
Format profile : LC
Format settings, SBR : No
Codec ID : 40
Duration : 2h 37mn
Bit rate mode : Constant
Bit rate : 126 Kbps
Channel(s) : 2 channels
Channel positions : L R
Sampling rate : 44.1 KHz
Resolution : 16 bits
Stream size : 142 MiB (9%)

pb.wtf



Скачать VA - Лучшие музыкальные клипы 2017 года через торрент http://i102.fastpic.ru/big/2017/1231/83/00c737ad9bf481f14ab4132374a1e983.png Скачать фильм VA - Лучшие музыкальные клипы 2017 года [2017 г., pop, dance, WEBRip 1080p]через торрент бесплантно в хорошем качестве Треклист: Нюша - Я не боюсь Даша Суворова - Кабриолеты Слава - Заметает зима Ellie Lil - Voda Подольская - Ни много ни мало ... 8.8 10 10
Торрент: Зарегистрирован [2017-12-31 12:50] · скачан: 415 раз
Статус: √ проверено
Размер: 1.47 GB
Как cкачать? Как скачать VA - Лучшие музыкальные клипы 2017 года через торрент | UTorrent

28-11-2019 20:33  

Отключить всю рекламу на сайте

31-12-2017 13:00 VA - Лучшие музыкальные клипы 2017 года Скачать торрент  

Спасибки.Скачаю,помогу с раздачей.pb.wtf



    Дорогой пользователь! Огромная просьба, поблагодарите релизера, оцените раздачу и оставьте свои комментарий, если Вы скачали VA - Лучшие музыкальные клипы 2017 года через торрент бесплатно! Внесите свою лепту в развитие PiratBit!
    Комментировать посты могут только пользователи прошедшие не сложную регистрацию
    Показать сообщения:    

    VA - Лучшие музыкальные клипы 2017 года через торрент
    Скачать бесплатно VA - Лучшие музыкальные клипы 2017 года
    VA - Лучшие музыкальные клипы 2017 года скачать торрент
    VA - Лучшие музыкальные клипы 2017 года смотреть онлайн
    Cкачать фильм VA - Лучшие музыкальные клипы 2017 года бесплатно
    VA - Лучшие музыкальные клипы 2017 года скачать торрент в хорошем качестве
    VA - Лучшие музыкальные клипы 2017 года смотреть онлайн бесплатно в хорошем качестве


    Вы не можете начинать темы
    Вы не можете отвечать на сообщения
    Вы не можете редактировать свои сообщения
    Вы не можете удалять свои сообщения
    Вы не можете голосовать в опросах
    Вы не можете прикреплять файлы к сообщениям
    Вы можете скачивать файлы