Ссылка на приватное зеркало нашего сайта всего за 1$. Внимание количество ограничено!!!

2 сезон

iTunes

1 сезон

1

2 сезон

2 сезон

iTunes

1 сезон

RePack

30

Ultimate

ВАЖНО

ИГРА 18+

pack

RePack

MK11
pack

Забери бонус

RePack

jed

!!Акция!!

Alien_Rage

RePack

fifa19

RePack

Assassins Creed: Odyssey

RePack

NEED FOR SPEED™ PAYBACK

4 сезон

9 сезон

Бесстыжие 9 сезон

Все сериалы

все сериалы на PB.wtf

RePack

FAR CRY 5
  

Черное зеркало / Black Mirror / Сезон: 4 / Серии: 1-6 из 6 (Оуэн Харрис, Карл Тиббеттс, Отто Баферст) [2017, фантастика, триллер, WEBRip] MVO [Good People] pb.wtf

Черное зеркало через торрент pb.wtf

Размер: 4.36 GB | Добавлен: 2 года 10 мес. назад | Торрент скачан:26 раз
Скачать  

31-12-2017 14:26 Черное зеркало Скачать торрент  

Черное зеркало / Black MirrorИнформация о фильме:

✦ Название: Черное зеркало
✦ Оригинальное название: Black Mirror
✦ Год выпуска: 2017
✦ Страна: Великобритания / Zeppotron
✦ Жанр: фантастика, триллер, драма
✦ Продолжительность: x ~ 00:59:00
✦ Перевод: профессиональный (многоголосый, закадровый) - Good People
✦ Субтитры: отсутствуют

✦ Режиссер: Оуэн Харрис, Карл Тиббеттс, Отто Баферст

rating

В ролях:

Брайс Даллас Ховард, Элис Ив, Михаэла Коэл, Черри Джонс, Дэйзи Хаггард, Алан Ричсон, Джеймс Нортон и другие и др.

Описание:

Фантастический британский телесериал перенесет зрителя в недалекое будущее, в котором человечество ждет небывалый технологический рост. Новые разработки уже успели полностью изменить наши жизни, плотно засев в окружающую действительность. Сейчас каждый имеет доступ к быстродействующим смартфонам, высококачественным телевизором, производительным компьютерам.
Мы все больше проводим время в соц сетях, предоставляя интернету все больше информации о собственной жизни и окружающих людях. Чужое мнение все больше давит на нас, заставляя следовать за обществом, которое порой может быть очень жестоким. Данный проект призван показать, что ждет людей в будущем и насколько наши жизни изменят современные технологии. Зачастую это оказывается мрачной картиной, в которой мы уже не можем контролировать себя, став марионеткой в руках хакеров, правительства, военных и корпораций. Теперь можно разрушить чью-то жизнь и разбить сердце лишь нажатием на клавиши, больше нет приватности и полной безопасности. Мы всецело отдаемся телевидению и интернету, но порой необходимо остановит этот бурно развивающийся процесс. Иначе произойдет то, что пытаются доказать зрителям создатели этого проекта.

Информация о файле:

✦ Качество: WEBRip
✦ Формат: AVI
✦ Видео кодек: XviD
✦ Аудио кодек: MP3

✦ Видео: 1554 kbps | 704x320 (2,2:1) | 25 fps
✦ Аудио#1 Rus: MP3 | 48.0 KHz | 2 ch | 128 kbps
✦ Аудио#2 Eng: MP3 | 48.0 KHz | 2 ch | 128 kbps


скриншот  
скриншот   скриншот   скриншот  

Общее
Полное имя : D:\Black Mirror. Season 5 (WEBRip l 400p l Good People)\Black.Mirror.s04e03.WEBRip.Rus.Eng.GoodPeople.avi
Формат : AVI
Формат/Информация : Audio Video Interleave
Размер файла : 769 Мбайт
Продолжительность : 59 м. 6 с.
Общий поток : 1818 Кбит/сек
Программа кодирования : VirtualDubMod 1.5.10.3 | www.virtualdub-fr.org || (build 2550/release)
Библиотека кодирования : VirtualDubMod build 2550/release

Видео
Идентификатор : 0
Формат : MPEG-4 Visual
Профиль формата : Advanced Simple@L5
Параметр BVOP формата : 1
Параметр QPel формата : Нет
Параметр GMC формата : Без точки перехода
Параметр матрицы формата : Default (MPEG)
Идентификатор кодека : XVID
Идентификатор кодека/Подсказка : XviD
Продолжительность : 59 м. 6 с.
Битрейт : 1547 Кбит/сек
Ширина : 704 пикселя
Высота : 320 пикселей
Соотношение сторон : 2,2:1
Частота кадров : 25,000 кадров/сек
Цветовое пространство : YUV
Субдискретизация насыщенности : 4:2:0
Битовая глубина : 8 бит
Тип развёртки : Прогрессивная
Метод сжатия : С потерями
Бит/(Пиксели*Кадры) : 0.275
Размер потока : 654 Мбайт (85%)
Библиотека кодирования : XviD 73

Аудио #1
Идентификатор : 1
Формат : MPEG Audio
Версия формата : Version 1
Профиль формата : Layer 3
Режим : Joint stereo
Расширение режима : MS Stereo
Идентификатор кодека : 55
Идентификатор кодека/Подсказка : MP3
Продолжительность : 59 м. 6 с.
Вид битрейта : Постоянный
Битрейт : 128 Кбит/сек
Каналы : 2 канала
Частота : 48,0 КГц
Метод сжатия : С потерями
Размер потока : 54,1 Мбайт (7%)
Выравнивание : Соединение по промежуткам
Продолжительность промежутка : 40 мс. (1,00 видеокадр)
Время предзагрузки промежутка : 504 мс.

Аудио #2
Идентификатор : 2
Формат : MPEG Audio
Версия формата : Version 1
Профиль формата : Layer 3
Режим : Joint stereo
Расширение режима : MS Stereo
Идентификатор кодека : 55
Идентификатор кодека/Подсказка : MP3
Продолжительность : 59 м. 6 с.
Вид битрейта : Постоянный
Битрейт : 128 Кбит/сек
Каналы : 2 канала
Частота : 48,0 КГц
Метод сжатия : С потерями
Размер потока : 54,1 Мбайт (7%)
Выравнивание : Соединение по промежуткам
Продолжительность промежутка : 40 мс. (1,00 видеокадр)
Время предзагрузки промежутка : 504 мс

Когда раздача ведётся путём добавления новых серий, при каждом добавлении создётся новый торрент. Чтобы начать докачку новой серии, пользователям необходимо сделать следующее:

(1) остановить скачивание,

(2) удалить старый торрент у себя из клиента (старые серии удалять не надо),

(3) скачать новый торрент и запустить его у себя в клиенте вместо старого, при этом указать клиенту путь в старую папку, куда и должно происходить скачивание новых серий.

Ваш клиент при этом должен произвести хеширование (проверку) старой папки (если не производит сам - помогите ему сделать это), и будет докачивать только те серии, которых у вас ещё нет. Старые серии при этом не удаляются, а продолжают раздаваться!

Eсли вы уже удалили старые серии, то предотвратить повторную закачку старых серий можно, отжав галочку в соответсвующих местах при запуске нового торрента. По возможности, желательно не удалять старые серии как можно дольше, чтобы релизер не столько продолжал раздавать старые серии, а смог сконцентрироваться на новых.
pb.wtf



Скачать Черное зеркало через торрент http://i100.fastpic.ru/big/2017/1231/dc/df4ecfd3d8f73f51b019c33ac03de0dc.jpg Скачать фильм Черное зеркало через торрент бесплантно в хорошем качестве Описание: Фантастический британский телесериал перенесет зрителя в недалекое будущее, в котором человечество ждет небывалый технологический ... 7.8 10 4
Торрент: Зарегистрирован [2018-01-12 18:07] · скачан: 26 раз
Статус: √ проверено
Размер: 4.36 GB
Как cкачать? Как скачать Черное зеркало через торрент | qTorrent

% Раздел Тема Автор DL S | L
Зарубежные сериалы [ 27.34 GB ] Черное зеркало / Black Mirror / Сезон: 4 / Серии: 1-6 из 6 [2017 WEBRip 1080p] [DVO] + 2x[MVO] killermax2013 Скачать
1 | 0
Зарубежные сериалы [ 5.21 GB ] Черное зеркало / Black Mirror / Сезон: 4 / Серии: 1-6 из 6 [2017 WEBRip] DVO [Кубик в Кубе] bober100 Скачать
1 | 0
Зарубежные сериалы [ 14.53 GB ] Черное зеркало / Black Mirror / Сезон: 4 / Серии: 1-6 из 6 [2017 WEBRip 720p] DVO [Кубик в Кубе] bober100 Скачать
1 | 0
Зарубежные сериалы [ 25.46 GB ] Черное зеркало / Black Mirror / Сезон: 4 / Серии: 1-6 из 6 [2017 WEBRip 1080p] DVO [Кубик в Кубе] bober100 Скачать
1 | 0
Зарубежные сериалы [ 4.77 GB ] Черное зеркало / Black Mirror / Сезон: 4 / Серии: 1-6 из 6 [2017 WEBRip] [DVO] [Кубик в Кубе] killermax2013 Скачать
1 | 0
Зарубежные сериалы [ 13.02 GB ] Черное зеркало / Black Mirror / 4 сезон / 1-6 серия из 6 [2017 WEB-DL 1080p] [MVO] killermax2013 Скачать
1 | 0
Зарубежные сериалы [ 4.27 GB ] Черное зеркало / Black Mirror / Сезон: 4 / Серии: 1-6 из 6 [2017 WEBRip] MVO [NewStudio] bober100 Скачать
1 | 0

28-11-2019 20:33  

Отключить всю рекламу на сайте

    Дорогой пользователь! Огромная просьба, поблагодарите релизера, оцените раздачу и оставьте свои комментарий, если Вы скачали Черное зеркало через торрент бесплатно! Внесите свою лепту в развитие PiratBit!
    Комментировать посты могут только пользователи прошедшие не сложную регистрацию
    Показать сообщения:    

    Черное зеркало через торрент
    Скачать бесплатно Черное зеркало
    Черное зеркало скачать торрент
    Черное зеркало смотреть онлайн
    Cкачать фильм Черное зеркало бесплатно
    Черное зеркало скачать торрент в хорошем качестве
    Черное зеркало смотреть онлайн бесплатно в хорошем качестве


    Вы не можете начинать темы
    Вы не можете отвечать на сообщения
    Вы не можете редактировать свои сообщения
    Вы не можете удалять свои сообщения
    Вы не можете голосовать в опросах
    Вы не можете прикреплять файлы к сообщениям
    Вы можете скачивать файлы