Ссылка на приватное зеркало нашего сайта всего за 1$. Внимание количество ограничено!!!

2 сезон

iTunes

1 сезон

1

2 сезон

2 сезон

iTunes

1 сезон

RePack

30

Ultimate

ВАЖНО

ИГРА 18+

pack

RePack

MK11
pack

Забери бонус

RePack

jed

!!Акция!!

Alien_Rage

RePack

fifa19

RePack

Assassins Creed: Odyssey

RePack

NEED FOR SPEED™ PAYBACK

4 сезон

9 сезон

Бесстыжие 9 сезон

Все сериалы

все сериалы на PB.wtf

RePack

FAR CRY 5
  

Скайлайн 2 / Beyond Skyline (Лайам О’Доннелл) [2017, ужасы, фантастика, боевик, триллер, приключения, BD Remux 1080p] DUB [iTunes] pb.wtf

Скайлайн 2 через торрент pb.wtf

Раздают: 1 [ 0 KB/s ]
Размер: 27.87 GB | Добавлен: 2 года 11 мес. назад | Торрент скачан:129 раз
Скачать  

31-12-2017 15:40 Скайлайн 2 Скачать торрент  

Скайлайн 2 / Beyond SkylineГод выпуска: 2017
Страна: Сингапур , Великобритания , Индонезия , Канада , США Китай
Жанр: ужасы, фантастика, боевик, триллер, приключения
Продолжительность: 01:46:34
Перевод: Дублированный | iTunes
Субтитры: Английские

Режиссер: Лайам О’Доннелл

rating

В ролях:

Фрэнк Грилло, Бояна Новакович, Ико Уайс, Каллэн Мулвей, Валентайн Пайен, Бетти Гэбриел, Джек Чоссе, Кевин О’Доннелл, Крис Т. Адамс, Тони Блэк

Описание:

В мире — хаос и паника. Небо закрыли нависающие над городами космические корабли, которые через огромные столпы света затягивают к себе на борт тысячи людей прямо с улиц. Чтобы найти похищенного сына, бесстрашному детективу придется проникнуть на корабль агрессивных пришельцев, отбить атаку этих разъяренных тварей и… попытаться вернуть планету землянам.

Качество: BD Remux 1080p
Формат: MKV
Видео кодек: H.264
Аудио кодек: AC3/DTS

Видео: MPEG-4 AVC, 1920x1080, 32.9 Mbit/s, 23.976 fps
Аудио#1: 48 kHz, AC3, 5.1, 384 Kbps | Дублированный | iTunes | RUS |
Аудио#2: 48 kHz, DTS-HD MA, 5.1, 4087 Kbps | Оригинал | ENG |


Релиз от:
скриншот   скриншот   скриншот   скриншот   скриншот  

General
Unique ID : 83394883407618223831306409354074025400 (0x3EBD453373A5F760A181EB42AE6C6DB8)
Complete name : G:VideoSSDBeyond.Skyline.2017.BDREMUX.1080p.ExKinoRay.mkv
Format : Matroska
Format version : Version 4 / Version 2
File size : 27.9 GiB
Duration : 1 h 46 min
Overall bit rate mode : Variable
Overall bit rate : 37.4 Mb/s
Movie name : Beyond Skyline 2017 from ExKinoRay
Encoded date : UTC 2017-12-31 15:10:24
Writing application : mkvmerge v19.0.0 ('Brave Captain') 64-bit
Writing library : libebml v1.3.5 + libmatroska v1.4.8

Video
ID : 1
Format : AVC
Format/Info : Advanced Video Codec
Format profile : High@L4.1
Format settings : CABAC / 3 Ref Frames
Format settings, CABAC : Yes
Format settings, ReFrames : 3 frames
Codec ID : V_MPEG4/ISO/AVC
Duration : 1 h 46 min
Bit rate mode : Variable
Bit rate : 32.9 Mb/s
Maximum bit rate : 34.5 Mb/s
Width : 1 920 pixels
Height : 1 080 pixels
Display aspect ratio : 16:9
Frame rate mode : Constant
Frame rate : 23.976 (24000/1001) FPS
Color space : YUV
Chroma subsampling : 4:2:0
Bit depth : 8 bits
Scan type : Progressive
Bits/(Pixel*Frame) : 0.663
Stream size : 24.5 GiB (88%)
Language : English
Default : Yes
Forced : No

Audio #1
ID : 2
Format : AC-3
Format/Info : Audio Coding 3
Codec ID : A_AC3
Duration : 1 h 46 min
Bit rate mode : Constant
Bit rate : 384 kb/s
Channel(s) : 6 channels
Channel positions : Front: L C R, Side: L R, LFE
Sampling rate : 48.0 kHz
Frame rate : 31.250 FPS (1536 SPF)
Bit depth : 16 bits
Compression mode : Lossy
Stream size : 293 MiB (1%)
Title : iTunes
Language : Russian
Service kind : Complete Main
Default : Yes
Forced : No

Audio #2
ID : 3
Format : DTS
Format/Info : Digital Theater Systems
Format profile : MA / Core
Codec ID : A_DTS
Duration : 1 h 46 min
Bit rate mode : Variable / Constant
Bit rate : 4 087 kb/s / 1 509 kb/s
Channel(s) : 6 channels
Channel positions : Front: L C R, Side: L R, LFE
Sampling rate : 48.0 kHz
Frame rate : 93.750 FPS (512 SPF)
Bit depth : 24 bits
Compression mode : Lossless / Lossy
Stream size : 3.04 GiB (11%)
Title : Original
Language : English
Default : No
Forced : No

Text
ID : 4
Format : UTF-8
Codec ID : S_TEXT/UTF8
Codec ID/Info : UTF-8 Plain Text
Duration : 1 h 41 min
Bit rate : 30 b/s
Count of elements : 835
Stream size : 23.0 KiB (0%)
Title : Full
Language : English
Default : No
Forced : No

Menu
00:00:00.000 : en:00:00:00.000
00:07:42.587 : en:00:07:42.587
00:16:46.172 : en:00:16:46.172
00:24:08.947 : en:00:24:08.947
00:33:19.998 : en:00:33:19.998
00:42:11.112 : en:00:42:11.112
00:51:07.439 : en:00:51:07.439
00:59:55.717 : en:00:59:55.717
01:08:09.627 : en:01:08:09.627
01:18:35.961 : en:01:18:35.961
01:26:59.089 : en:01:26:59.089
01:35:50.453 : en:01:35:50.453

pb.wtf



Скачать Скайлайн 2 через торрент http://img12.lostpic.net/2017/12/31/dbf8726fea241c6a94e137fe38a9d581.jpg Скачать фильм Скайлайн 2 через торрент бесплантно в хорошем качестве Описание: В мире — хаос и паника. Небо закрыли нависающие над городами космические корабли, которые через огромные столпы света затягивают ... 8.2 10 11
Info! Золотая раздача, скачанное не засчитывается.
Торрент: Зарегистрирован [2017-12-31 15:40] · скачан: 129 раз
Статус: √ проверено
Размер: 27.87 GB
Как cкачать? Как скачать Скайлайн 2 через торрент | qTorrent

% Раздел Тема Автор DL S | L
Фильмы [HD 720p, 1080p] (Хороший звук DUB, MVO) [ 6.07 GB ] Скайлайн 2 / Beyond Skyline [2017 BDRip 720p] DUB [] bober100 Скачать
1 | 0
Фильмы [HD 720p, 1080p] (Хороший звук DUB, MVO) [ 10.74 GB ] Скайлайн 2 / Beyond Skyline [2017 BDRip 1080p] DUB [] bober100 Скачать
1 | 0
Фильмы 2017 [DVDrip, WEB-DLRip, HDrip] (DUB, MVO) [ 1.47 GB ] Скайлайн 2 / Beyond Skyline [2017 BDRip-AVC] sokol_ok Скачать
2 | 0
Фильмы 2017 [DVDrip, WEB-DLRip, HDrip] (DUB, MVO) [ 2.21 GB ] Скайлайн 2 / Beyond Skyline [2017 BDRip-AVC] sokol_ok Скачать
1 | 0
Фильмы 2017 [DVDrip, WEB-DLRip, HDrip] (DUB, MVO) [ 1.46 GB ] Скайлайн 2 / Beyond Skyline [2017 BDRip] - [] Twi7ter Скачать
1 | 0
Фильмы 2017 [DVDrip, WEB-DLRip, HDrip] (DUB, MVO) [ 2.17 GB ] Скайлайн 2 / Beyond Skyline [2017 BDRip-AVC] - [] - ExKinoRay Enigma2010 Скачать
1 | 0
Фильмы (Blu-ray, BD-Remux, HDDVD) [ 18.06 GB ] Скайлайн 2 / Beyond Skyline [2017 Blu-ray 1080p] DUB [Rus Transfer] [] bober100 Скачать
1 | 0

28-11-2019 20:33  

Отключить всю рекламу на сайте

31-12-2017 17:31 Скайлайн 2 Скачать торрент  

если честно, я досмотреть не смог,увы, два раза сдюжил-не выключить, на третий-не смог pb.wtf



    Дорогой пользователь! Огромная просьба, поблагодарите релизера, оцените раздачу и оставьте свои комментарий, если Вы скачали Скайлайн 2 через торрент бесплатно! Внесите свою лепту в развитие PiratBit!
    Комментировать посты могут только пользователи прошедшие не сложную регистрацию
    Показать сообщения:    

    Скайлайн 2 через торрент
    Скачать бесплатно Скайлайн 2
    Скайлайн 2 скачать торрент
    Скайлайн 2 смотреть онлайн
    Cкачать фильм Скайлайн 2 бесплатно
    Скайлайн 2 скачать торрент в хорошем качестве
    Скайлайн 2 смотреть онлайн бесплатно в хорошем качестве


    Вы не можете начинать темы
    Вы не можете отвечать на сообщения
    Вы не можете редактировать свои сообщения
    Вы не можете удалять свои сообщения
    Вы не можете голосовать в опросах
    Вы не можете прикреплять файлы к сообщениям
    Вы можете скачивать файлы