Marvel's Avengers Deluxe Edition (супер цена) 159р. Внимание количество ограничено!!!

2 сезон

iTunes

iTunes

1

iTunes

iTunes

iTunes

WEBRip

iTunes

30
pack

Новость дня

ВАЖНО

!!Акция!!

Alien_RageХит недели

RePack

Horizon Zero Dawn

ИГРА 18+

pack

RePack

jed

!!Акция!!

Alien_Rage

RePack

fifa19

RePack

Assassins Creed: Odyssey

RePack

NEED FOR SPEED™ PAYBACK

4 сезон

9 сезон

Бесстыжие 9 сезон

Все сериалы

все сериалы на PB.wtf

RePack

FAR CRY 5
  

Рождественский отпуск / Christmas Getaway (Мэл Дэмски) [2017, драма, мелодрама, WEBRip 720p] MVO ["Синема УС"] pb.wtf

Рождественский отпуск через торрент pb.wtf

Размер: 2.66 GB | Добавлен: 2 года 8 мес. назад | Торрент скачан:111 раз
Скачать  

31-12-2017 16:14 Рождественский отпуск Скачать торрент  

Рождественский отпуск / Christmas Getaway
Год выпуска: 2017
Страна: США
Жанр: драма, мелодрама
Продолжительность: 01:24:43
Перевод: Любительский (многоголосый) ["Синема УС"]
Субтитры: отсутствуют

Режиссер: Мэл Дэмски

rating

В ролях:

Бриджит Риган, Трэвис Ван Винкль, Ворон Стюарт, Терил Ротери, Сара Смит, Дэн Пейн, Элвин Сандерс

Описание:

Писательница едет на Рождество в горы, но обнаруживает, что её домик забронирован вдовцом, который приехал с мамой и дочкой.

Качество: WEBRip 720p
Формат: MKV
Видео кодек: H.264
Аудио кодек: AC3

Видео: MKV, 4113 Kбит/с, 1280x720
Аудио#1: Русский, (AC3, 2 ch, 384 Кбит/с)

скриншот   скриншот   скриншот  

Общее
Уникальный идентификатор : 250136189659785667194105769939619598290 (0xBC2E7A500E8DD0BA97FBD6382C98CFD2)
Полное имя : D:\Сhristmas.getaway.2017.P.HDTV.72Op_KOSHARA.mkv
Формат : Matroska
Версия формата : Version 2
Размер файла : 2,66 Гбайт
Продолжительность : 1 ч. 24 м.
Режим общего битрейта : Переменный
Общий поток : 4499 Кбит/сек
Дата кодирования : UTC 2017-12-30 20:07:09
Программа кодирования : mkvmerge v8.3.0 ('Over the Horizon') 64bit
Библиотека кодирования : libebml v1.3.1 + libmatroska v1.4.2

Видео
Идентификатор : 1
Формат : AVC
Формат/Информация : Advanced Video Codec
Профиль формата : High@L4.1
Параметр CABAC формата : Да
Параметр ReFrames формата : 9 кадров
Идентификатор кодека : V_MPEG4/ISO/AVC
Продолжительность : 1 ч. 24 м.
Вид битрейта : Переменный
Битрейт : 4113 Кбит/сек
Максимальный битрейт : 4500 Кбит/сек
Ширина : 1280 пикселей
Высота : 720 пикселей
Соотношение сторон : 16:9
Режим частоты кадров : Постоянный
Частота кадров : 23,976 (24000/1001) кадра/сек
Стандарт вещания : Component
Цветовое пространство : YUV
Субдискретизация насыщенности : 4:2:0
Битовая глубина : 8 бит
Тип развёртки : Прогрессивная
Бит/(Пиксели*Кадры) : 0.182
Размер потока : 2,38 Гбайт (89%)
Default : Да
Forced : Нет
Цветовой диапазон : Limited
Основные цвета : BT.709
Характеристики трансфера : BT.709
Коэффициенты матрицы : BT.709

Аудио
Идентификатор : 2
Формат : AC-3
Формат/Информация : Audio Coding 3
Расширение режима : CM (complete main)
Параметр Endianness формата : Big
Идентификатор кодека : A_AC3
Продолжительность : 1 ч. 24 м.
Вид битрейта : Постоянный
Битрейт : 384 Кбит/сек
Каналы : 2 канала
Расположение каналов : Front: L R
Частота : 48,0 КГц
Частота кадров : 31,250 кадров/сек (1536 spf)
Метод сжатия : С потерями
Размер потока : 233 Мбайт (9%)
Default : Да
Forced : Нет

pb.wtf



Скачать Рождественский отпуск через торрент https://d.radikal.ru/d33/1712/ad/005abbc47082.jpg Скачать фильм Рождественский отпуск через торрент бесплантно в хорошем качестве Описание: Писательница едет на Рождество в горы, но обнаруживает, что её домик забронирован вдовцом, который приехал с мамой и ... 8.2 10 5
Торрент: Зарегистрирован [2017-12-31 16:14] · скачан: 111 раз
Статус: T временная
Размер: 2.66 GB
Как cкачать? Как скачать Рождественский отпуск через торрент | qTorrent

% Раздел Тема Автор DL S | L
T Фильмы (мультфильмы) cо спонсором показа (Новинки AVI/MKV) [ 1.37 GB ] Рождественский отпуск / Christmas Getaway [ 2017 HDTVRip Любительский [Синема УС] oleg8 Скачать
1 | 0

28-11-2019 20:33  

Отключить всю рекламу на сайте

    Дорогой пользователь! Огромная просьба, поблагодарите релизера, оцените раздачу и оставьте свои комментарий, если Вы скачали Рождественский отпуск через торрент бесплатно! Внесите свою лепту в развитие PiratBit!
    Комментировать посты могут только пользователи прошедшие не сложную регистрацию
    Показать сообщения:    

    Рождественский отпуск через торрент
    Скачать бесплатно Рождественский отпуск
    Рождественский отпуск скачать торрент
    Рождественский отпуск смотреть онлайн
    Cкачать фильм Рождественский отпуск бесплатно
    Рождественский отпуск скачать торрент в хорошем качестве
    Рождественский отпуск смотреть онлайн бесплатно в хорошем качестве


    Вы не можете начинать темы
    Вы не можете отвечать на сообщения
    Вы не можете редактировать свои сообщения
    Вы не можете удалять свои сообщения
    Вы не можете голосовать в опросах
    Вы не можете прикреплять файлы к сообщениям
    Вы можете скачивать файлы