Ссылка на приватное зеркало нашего сайта всего за 1$. Внимание количество ограничено!!!

2 сезон

iTunes

1 сезон

1

2 сезон

2 сезон

iTunes

1 сезон

RePack

30

Ultimate

ВАЖНО

ИГРА 18+

pack

RePack

MK11
pack

Забери бонус

RePack

jed

!!Акция!!

Alien_Rage

RePack

fifa19

RePack

Assassins Creed: Odyssey

RePack

NEED FOR SPEED™ PAYBACK

4 сезон

9 сезон

Бесстыжие 9 сезон

Все сериалы

все сериалы на PB.wtf

RePack

FAR CRY 5
  

Черное зеркало / Black Mirror / Сезон: 4 / Серии: 1-6 из 6 (Оуэн Харрис, Карл Тиббеттс, Отто Баферст) [2017, фантастика, триллер, WEBRip 720p] DVO [Кубик в Кубе] pb.wtf

Черное зеркало через торрент pb.wtf

Размер: 14.53 GB | Добавлен: 2 года 9 мес. назад | Торрент скачан:200 раз
Скачать  

31-12-2017 18:34 Черное зеркало Скачать торрент  

Черное зеркало / Black MirrorИнформация о фильме:

Название: Черное зеркало
Оригинальное название: Black Mirror
Год выпуска: 2017
Страна: Великобритания / Zeppotron
Жанр: фантастика, триллер, драма
Продолжительность: x ~ 00:59:00
Перевод: Профессиональный двухголосый Кубик в Кубе
Субтитры: Английские, русские

Режиссер: Оуэн Харрис, Карл Тиббеттс, Отто Баферст

rating

В ролях:

Брайс Даллас Ховард, Элис Ив, Михаэла Коэл, Черри Джонс, Дэйзи Хаггард, Алан Ричсон, Джеймс Нортон и другие и др.

Описание:

Фантастический британский телесериал перенесет зрителя в недалекое будущее, в котором человечество ждет небывалый технологический рост. Новые разработки уже успели полностью изменить наши жизни, плотно засев в окружающую действительность. Сейчас каждый имеет доступ к быстродействующим смартфонам, высококачественным телевизором, производительным компьютерам.
Мы все больше проводим время в соц сетях, предоставляя интернету все больше информации о собственной жизни и окружающих людях. Чужое мнение все больше давит на нас, заставляя следовать за обществом, которое порой может быть очень жестоким. Данный проект призван показать, что ждет людей в будущем и насколько наши жизни изменят современные технологии. Зачастую это оказывается мрачной картиной, в которой мы уже не можем контролировать себя, став марионеткой в руках хакеров, правительства, военных и корпораций. Теперь можно разрушить чью-то жизнь и разбить сердце лишь нажатием на клавиши, больше нет приватности и полной безопасности. Мы всецело отдаемся телевидению и интернету, но порой необходимо остановит этот бурно развивающийся процесс. Иначе произойдет то, что пытаются доказать зрителям создатели этого проекта.

Информация о файле:

Качество: WEBRip 720p
Формат: MKV
Видео кодек: H.264
Аудио кодек: AC3

Видео: 1280х720 at 25.000 fps, x264, ~5500 kbps avg
Аудио#1: Russian: 48 kHz, AC3, 3/2 (L,C,R,l,r) + LFE ch, ~384 kbps avg |Двухголосый закадровый, Кубик в Кубе|
Аудио#2: English: 48 kHz, AC3, 3/2 (L,C,R,l,r) + LFE ch, ~384 kbps avg


***Примечание: Без рекламы.

скриншот  
скриншот   скриншот   скриншот   скриншот  

Общее
Уникальный идентификатор : 208421655183643400098161724668678858410 (0x9CCC8CF9369A103DBC7518DD9D4D66AA)
Полное имя : C:\Users\Бобер\Desktop\Black.Mirror_s04_720p_KvK\Black.Mirror.s04e01.720p.WEBRip.KvK.mkv
Формат : Matroska
Версия формата : Version 4 / Version 2
Размер файла : 3,36 Гбайт
Продолжительность : 1 ч. 16 м.
Общий поток : 6270 Кбит/сек
Название фильма : Black Mirror 04x01 (USS Callister)
Дата кодирования : UTC 2018-02-01 05:05:34
Программа кодирования : mkvmerge v18.0.0 ('Apricity') 64-bit
Библиотека кодирования : libebml v1.3.5 + libmatroska v1.4.8

Видео
Идентификатор : 1
Формат : AVC
Формат/Информация : Advanced Video Codec
Профиль формата : High@L4.1
Параметр CABAC формата : Да
Параметр ReFrames формата : 9 кадров
Идентификатор кодека : V_MPEG4/ISO/AVC
Продолжительность : 1 ч. 16 м.
Битрейт : 5478 Кбит/сек
Ширина : 1280 пикселей
Высота : 720 пикселей
Соотношение сторон : 16:9
Режим частоты кадров : Постоянный
Частота кадров : 25,000 кадров/сек
Цветовое пространство : YUV
Субдискретизация насыщенности : 4:2:0
Битовая глубина : 8 бит
Тип развёртки : Прогрессивная
Бит/(Пиксели*Кадры) : 0.233
Размер потока : 2,88 Гбайт (86%)
Библиотека кодирования : x264 core 152 r2851 ba24899
Настройки программы : cabac=1 / ref=9 / deblock=1:-3:-3 / analyse=0x3:0x133 / me=umh / subme=11 / psy=1 / psy_rd=1.05:0.00 / mixed_ref=1 / me_range=64 / chroma_me=1 / trellis=2 / 8x8dct=1 / cqm=0 / deadzone=21,11 / fast_pskip=0 / chroma_qp_offset=-2 / threads=12 / lookahead_threads=3 / sliced_threads=0 / nr=0 / decimate=0 / interlaced=0 / bluray_compat=0 / constrained_intra=0 / bframes=16 / b_pyramid=2 / b_adapt=2 / b_bias=0 / direct=3 / weightb=1 / open_gop=0 / weightp=2 / keyint=250 / keyint_min=25 / scenecut=40 / intra_refresh=0 / rc=crf / mbtree=0 / crf=16.3 / qcomp=0.65 / qpmin=0 / qpmax=69 / qpstep=4 / ip_ratio=1.40 / pb_ratio=1.20 / aq=3:0.85
Язык : English
Default : Да
Forced : Нет

Аудио #1
Идентификатор : 2
Формат : AC-3
Формат/Информация : Audio Coding 3
Расширение режима : CM (complete main)
Параметр Endianness формата : Big
Идентификатор кодека : A_AC3
Продолжительность : 1 ч. 16 м.
Вид битрейта : Постоянный
Битрейт : 384 Кбит/сек
Каналы : 6 каналов
Расположение каналов : Front: L C R, Side: L R, LFE
Частота : 48,0 КГц
Частота кадров : 31,250 кадров/сек (1536 spf)
Метод сжатия : С потерями
Размер потока : 210 Мбайт (6%)
Заголовок : DD5.1 Кубик в кубе
Язык : Russian
Default : Да
Forced : Нет

Аудио #2
Идентификатор : 3
Формат : AC-3
Формат/Информация : Audio Coding 3
Расширение режима : CM (complete main)
Параметр Endianness формата : Big
Идентификатор кодека : A_AC3
Продолжительность : 1 ч. 16 м.
Вид битрейта : Постоянный
Битрейт : 384 Кбит/сек
Каналы : 6 каналов
Расположение каналов : Front: L C R, Side: L R, LFE
Частота : 48,0 КГц
Частота кадров : 31,250 кадров/сек (1536 spf)
Метод сжатия : С потерями
Размер потока : 210 Мбайт (6%)
Заголовок : DD5.1 Original
Язык : English
Default : Нет
Forced : Нет

Текст #1
Идентификатор : 4
Формат : UTF-8
Идентификатор кодека : S_TEXT/UTF8
Идентификатор кодека/Информация : UTF-8 Plain Text
Язык : Russian
Default : Нет
Forced : Нет

Текст #2
Идентификатор : 5
Формат : UTF-8
Идентификатор кодека : S_TEXT/UTF8
Идентификатор кодека/Информация : UTF-8 Plain Text
Заголовок : SDH
Язык : English
Default : Нет
Forced : Нет

Когда раздача ведётся путём добавления новых серий, при каждом добавлении создётся новый торрент. Чтобы начать докачку новой серии, пользователям необходимо сделать следующее:

(1) остановить скачивание,

(2) удалить старый торрент у себя из клиента (старые серии удалять не надо),

(3) скачать новый торрент и запустить его у себя в клиенте вместо старого, при этом указать клиенту путь в старую папку, куда и должно происходить скачивание новых серий.

Ваш клиент при этом должен произвести хеширование (проверку) старой папки (если не производит сам - помогите ему сделать это), и будет докачивать только те серии, которых у вас ещё нет. Старые серии при этом не удаляются, а продолжают раздаваться!

Eсли вы уже удалили старые серии, то предотвратить повторную закачку старых серий можно, отжав галочку в соответсвующих местах при запуске нового торрента. По возможности, желательно не удалять старые серии как можно дольше, чтобы релизер не столько продолжал раздавать старые серии, а смог сконцентрироваться на новых.
pb.wtf
Kbober100 писал(а):

Заменены все серии (новый исходник с лучшим качеством, озвучено в два голоса).



Скачать Черное зеркало через торрент https://b.radikal.ru/b16/1712/9e/ff295052a1ef.png Скачать фильм Черное зеркало через торрент бесплантно в хорошем качестве Описание: Фантастический британский телесериал перенесет зрителя в недалекое будущее, в котором человечество ждет небывалый технологический ... 10 10 8
Info! Золотая раздача, скачанное не засчитывается.
Торрент: Зарегистрирован [2018-02-01 08:44] · скачан: 200 раз
Статус: √ проверено
Размер: 14.53 GB
Как cкачать? Как скачать Черное зеркало через торрент | qTorrent

% Раздел Тема Автор DL S | L
Зарубежные сериалы [ 27.34 GB ] Черное зеркало / Black Mirror / Сезон: 4 / Серии: 1-6 из 6 [2017 WEBRip 1080p] [DVO] + 2x[MVO] killermax2013 Скачать
1 | 0
Зарубежные сериалы [ 5.21 GB ] Черное зеркало / Black Mirror / Сезон: 4 / Серии: 1-6 из 6 [2017 WEBRip] DVO [Кубик в Кубе] bober100 Скачать
1 | 0
Зарубежные сериалы [ 25.46 GB ] Черное зеркало / Black Mirror / Сезон: 4 / Серии: 1-6 из 6 [2017 WEBRip 1080p] DVO [Кубик в Кубе] bober100 Скачать
1 | 0
Зарубежные сериалы [ 4.77 GB ] Черное зеркало / Black Mirror / Сезон: 4 / Серии: 1-6 из 6 [2017 WEBRip] [DVO] [Кубик в Кубе] killermax2013 Скачать
1 | 0
Зарубежные сериалы [ 13.02 GB ] Черное зеркало / Black Mirror / 4 сезон / 1-6 серия из 6 [2017 WEB-DL 1080p] [MVO] killermax2013 Скачать
1 | 0
Зарубежные сериалы [ 4.27 GB ] Черное зеркало / Black Mirror / Сезон: 4 / Серии: 1-6 из 6 [2017 WEBRip] MVO [NewStudio] bober100 Скачать
1 | 0
Зарубежные сериалы [ 4.36 GB ] Черное зеркало / Black Mirror / Сезон: 4 / Серии: 1-6 из 6 [2017 WEBRip] MVO [Good People] bober100 Скачать
1 | 0


Последний раз редактировалось: bober100 (2018-02-01 10:27), всего редактировалось 6 раз(а)

28-11-2019 20:33  

Отключить всю рекламу на сайте

01-01-2018 21:42 Черное зеркало Скачать торрент  

bober100, спасибо за квк
С какой периодичностью добавляются серии?pb.wtf



01-02-2018 18:30 Черное зеркало Скачать торрент  

Крутой сериал!pb.wtf



    Дорогой пользователь! Огромная просьба, поблагодарите релизера, оцените раздачу и оставьте свои комментарий, если Вы скачали Черное зеркало через торрент бесплатно! Внесите свою лепту в развитие PiratBit!
    Комментировать посты могут только пользователи прошедшие не сложную регистрацию
    Показать сообщения:    

    Черное зеркало через торрент
    Скачать бесплатно Черное зеркало
    Черное зеркало скачать торрент
    Черное зеркало смотреть онлайн
    Cкачать фильм Черное зеркало бесплатно
    Черное зеркало скачать торрент в хорошем качестве
    Черное зеркало смотреть онлайн бесплатно в хорошем качестве


    Вы не можете начинать темы
    Вы не можете отвечать на сообщения
    Вы не можете редактировать свои сообщения
    Вы не можете удалять свои сообщения
    Вы не можете голосовать в опросах
    Вы не можете прикреплять файлы к сообщениям
    Вы можете скачивать файлы