Ссылка на приватное зеркало всего за 1$. Внимание количество ограничено!!!

iTunes

iTunes

iTunes

1

iTunes

iTunes

iTunes

iTunes

iTunes

30
pack

$ от Little Big

ВАЖНО

!!Акция!!

Alien_RageХит недели

RePack

Resident Evil 21

ИГРА 18+

pack

RePack

jed

!!Акция!!

Alien_Rage

RePack

fifa19

RePack

Assassins Creed: Odyssey

RePack

NEED FOR SPEED™ PAYBACK

4 сезон

9 сезон

Бесстыжие 9 сезон

Все сериалы

все сериалы на PB.wtf

RePack

FAR CRY 5
  

Новизна / Newness (Дрейк Доримус) [2017, драма, мелодрама, WEB-DL 720p] DUB [iTunes] pb.wtf

Новизна через торрент pb.wtf

Размер: 4.04 GB | Добавлен: 2 года 6 мес. назад | Торрент скачан:98 раз
Скачать  

31-12-2017 23:05 Новизна Скачать торрент  

Новизна / NewnessГод выпуска: 2017
Страна: США
Жанр: драма, мелодрама
Продолжительность: 01:56:46
Перевод: Дублированный | iTunes
Субтитры: Английские

Режиссер: Дрейк Доримус

rating

В ролях:

Николас Холт, Лайа Коста, Дэнни Хьюстон, Мэттью Грей Гублер, Люк Байбак, Рене Каде, Эва Сеха, Эльза Кокерел, Кортни Итон

Описание:

Пара свободных минут, доступ в интернет и идеальное приложение для знакомств — всё что нужно для быстрого поиска партнера на пару часов. XXI век. Своеобразная рулетка для любителей свиданий и дружеского секса без обязательств. Усилий никаких не требуется, вам остается только перемещаться по экрану смартфона легким скольжением пальцев, привередливо сжав губы. Дефицита вариантов нет.

Одиночество в сети или зависимость? Случайная ночная встреча Габи и Мартина на пару часов, казалось бы, не должна была ничего изменить. Но что-то пошло не так. И быстрое знакомство переросло в серьезные отношения, к которым, как оказалось, не были готовы ни он, ни она...

Качество: WEB-DL 720p
Формат: MKV
Видео кодек: H.264
Аудио кодек: AC3

Видео: MPEG-4 AVC, 4177 kb/s, 1280x532
Аудио#1: Russian: AC3, 384 kb/s (6 ch)
Аудио#2: English: AC3, 384 kb/s (6 ch)
скриншот   скриншот   скриншот   скриншот   скриншот  

Общее
Уникальный идентификатор : 198871276579582599079639823041210433247 (0x959D36F43D8DB87F95414B06D0B13EDF)
Полное имя : D:\NoviZna.2O17.D.WEB-DL.72Op.mkv
Формат : Matroska
Версия формата : Version 2
Размер файла : 4,04 Гбайт
Продолжительность : 1 ч. 56 м.
Общий поток : 4944 Кбит/сек
Дата кодирования : UTC 2017-12-31 19:28:13
Программа кодирования : mkvmerge v8.3.0 ('Over the Horizon') 64bit
Библиотека кодирования : libebml v1.3.1 + libmatroska v1.4.2

Видео
Идентификатор : 1
Формат : AVC
Формат/Информация : Advanced Video Codec
Профиль формата : High@L4.1
Параметр CABAC формата : Да
Параметр ReFrames формата : 4 кадра
Идентификатор кодека : V_MPEG4/ISO/AVC
Продолжительность : 1 ч. 56 м.
Битрейт : 4177 Кбит/сек
Ширина : 1280 пикселей
Высота : 532 пикселя
Соотношение сторон : 2,40:1
Режим частоты кадров : Постоянный
Частота кадров : 23,976 (24000/1001) кадра/сек
Цветовое пространство : YUV
Субдискретизация насыщенности : 4:2:0
Битовая глубина : 8 бит
Тип развёртки : Прогрессивная
Бит/(Пиксели*Кадры) : 0.256
Размер потока : 3,41 Гбайт (84%)
Язык : English
Default : Да
Forced : Нет

Аудио #1
Идентификатор : 2
Формат : AC-3
Формат/Информация : Audio Coding 3
Расширение режима : CM (complete main)
Параметр Endianness формата : Big
Идентификатор кодека : A_AC3
Продолжительность : 1 ч. 56 м.
Вид битрейта : Постоянный
Битрейт : 384 Кбит/сек
Каналы : 6 каналов
Расположение каналов : Front: L C R, Side: L R, LFE
Частота : 48,0 КГц
Частота кадров : 31,250 кадров/сек (1536 spf)
Метод сжатия : С потерями
Размер потока : 321 Мбайт (8%)
Язык : Russian
Default : Да
Forced : Нет

Аудио #2
Идентификатор : 3
Формат : AC-3
Формат/Информация : Audio Coding 3
Расширение режима : CM (complete main)
Параметр Endianness формата : Big
Идентификатор кодека : A_AC3
Продолжительность : 1 ч. 56 м.
Вид битрейта : Постоянный
Битрейт : 384 Кбит/сек
Каналы : 6 каналов
Расположение каналов : Front: L C R, Side: L R, LFE
Частота : 48,0 КГц
Частота кадров : 31,250 кадров/сек (1536 spf)
Метод сжатия : С потерями
Размер потока : 321 Мбайт (8%)
Язык : English
Default : Нет
Forced : Нет

Текст
Идентификатор : 4
Формат : UTF-8
Идентификатор кодека : S_TEXT/UTF8
Идентификатор кодека/Информация : UTF-8 Plain Text
Продолжительность : 1 ч. 50 м.
Битрейт : 55 бит/сек
Count of elements : 1832
Размер потока : 44,7 Кбайт (0%)
Язык : English
Default : Нет
Forced : Нет

Меню
00:00:00.000 : en:Chapter 1
00:07:45.382 : en:Chapter 2
00:19:31.254 : en:Chapter 3
00:29:30.061 : en:Chapter 4
00:41:15.599 : en:Chapter 5
00:52:10.754 : en:Chapter 6
00:59:01.039 : en:Chapter 7
01:09:45.683 : en:Chapter 8
01:20:12.810 : en:Chapter 9
01:30:47.486 : en:Chapter 10
01:41:22.704 : en:Chapter 11
01:52:27.160 : en:Chapter 12

pb.wtf



Скачать Новизна через торрент http://s56.radikal.ru/i154/1711/17/70c69363627b.png Скачать фильм Новизна через торрент бесплантно в хорошем качестве Описание: Пара свободных минут, доступ в интернет и идеальное приложение для знакомств — всё что нужно для быстрого поиска партнера на пару ... 10 10 3
Торрент: Зарегистрирован [2017-12-31 23:05] · скачан: 98 раз
Статус: √ проверено
Размер: 4.04 GB
Как cкачать? Как скачать Новизна через торрент | qTorrent

% Раздел Тема Автор DL S | L
Фильмы 2017 [DVDrip, WEB-DLRip, HDrip] (DUB, MVO) [ 1.46 GB ] Новизна / Newness [2017 WEB-DLRip-AVC] Loc387 Скачать
1 | 0
Фильмы (WEB-DL 720p, 1080p) [ 4.36 GB ] Новизна / Newness [2017 WEB-DL 1080p] bober100 Скачать
1 | 0
Фильмы 2017 [DVDrip, WEB-DLRip, HDrip] (DUB, MVO) [ 1.45 GB ] Новизна / Newness [2017 WEB-DLRip] bober100 Скачать
1 | 0

28-11-2019 20:33  

Отключить всю рекламу на сайте

    Дорогой пользователь! Огромная просьба, поблагодарите релизера, оцените раздачу и оставьте свои комментарий, если Вы скачали Новизна через торрент бесплатно! Внесите свою лепту в развитие PiratBit!
    Комментировать посты могут только пользователи прошедшие не сложную регистрацию
    Показать сообщения:    

    Новизна через торрент
    Скачать бесплатно Новизна
    Новизна скачать торрент
    Новизна смотреть онлайн
    Cкачать фильм Новизна бесплатно
    Новизна скачать торрент в хорошем качестве
    Новизна смотреть онлайн бесплатно в хорошем качестве


    Вы не можете начинать темы
    Вы не можете отвечать на сообщения
    Вы не можете редактировать свои сообщения
    Вы не можете удалять свои сообщения
    Вы не можете голосовать в опросах
    Вы не можете прикреплять файлы к сообщениям
    Вы можете скачивать файлы