Ссылка на приватное зеркало нашего сайта всего за 1$. Внимание количество ограничено!!!

2 сезон

iTunes

1 сезон

1

iTunes

iTunes

iTunes

1 сезон

RePack

30

ИГРА 18+

pack

ВАЖНО

!!Акция!!

Alien_RageХит недели

RePack

MK11
pack

Забери бонус

RePack

jed

!!Акция!!

Alien_Rage

RePack

fifa19

RePack

Assassins Creed: Odyssey

RePack

NEED FOR SPEED™ PAYBACK

4 сезон

9 сезон

Бесстыжие 9 сезон

Все сериалы

все сериалы на PB.wtf

RePack

FAR CRY 5
  

Дыши ради нас / Breathe (Энди Серкис) [2017, Драма, мелодрама, биография, BDRip 1080p] DUB [iTunes] pb.wtf

Дыши ради нас через торрент pb.wtf

Размер: 10.79 GB | Добавлен: 2 года 9 мес. назад | Торрент скачан:151 раз
Скачать  

01-01-2018 00:47 Дыши ради нас Скачать торрент  

Дыши ради нас / BreatheГод выпуска: 2017
Страна: Великобритания
Жанр: Драма, мелодрама, биография
Продолжительность: 01:58:07
Перевод: Дублированный | iTunes
Субтитры: отсутствуют

Режиссер: Энди Серкис

rating

В ролях:

Эндрю Гарфилд, Клер Фой, Эдвард Спелирс, Том Холландер, Дэвид Батлер, Бен Ллойд-Хьюз, Миранда Рэйсон, Камилла Разерфорд, Андре Джейкобс, Терри Нортон

Описание:

Его манеры, настойчивость и великолепное чувство юмора с первого взгляда покорили неприступную Диану. После свадьбы молодожены отправляются в путешествие, где Робин тяжело заболевает. И теперь только любовь способна подарить ему вторую жизнь...

Качество: BDRip 1080p
Формат: MKV
Видео кодек: H.264
Аудио кодек: AC3/DTS

Видео: MPEG-4 AVC, 1920x698, 11.2 Мbit/s, 23.976 fps
Аудио#1: 48 kHz, AC3, 5.1, 384 Kbps | Дублированный | iTunes | RUS |
Аудио#2: 48 kHz, DTS, 5.1, 1510 Kbps | Оригинал | ENG |


Релиз от:
скриншот   скриншот   скриншот   скриншот   скриншот  

General
Unique ID : 266833974963758489331281457332515329457 (0xC8BE5AB089C0FF6E41F3F9547FED55B1)
Complete name : G:VideoSSDBreathe.2017.D.BDRip.1080p.ExKinoRay.mkv
Format : Matroska
Format version : Version 4 / Version 2
File size : 10.8 GiB
Duration : 1 h 58 min
Overall bit rate : 13.1 Mb/s
Movie name : Breathe 2017 from ExKinoRay
Encoded date : UTC 2017-12-30 09:52:25
Writing application : mkvmerge v19.0.0 ('Brave Captain') 64-bit
Writing library : libebml v1.3.5 + libmatroska v1.4.8

Video
ID : 1
Format : AVC
Format/Info : Advanced Video Codec
Format profile : High@L4.1
Format settings : CABAC / 5 Ref Frames
Format settings, CABAC : Yes
Format settings, ReFrames : 5 frames
Codec ID : V_MPEG4/ISO/AVC
Duration : 1 h 58 min
Bit rate : 11.2 Mb/s
Width : 1 920 pixels
Height : 698 pixels
Display aspect ratio : 2.751
Frame rate mode : Constant
Frame rate : 23.976 (24000/1001) FPS
Color space : YUV
Chroma subsampling : 4:2:0
Bit depth : 8 bits
Scan type : Progressive
Bits/(Pixel*Frame) : 0.348
Stream size : 9.23 GiB (86%)
Writing library : x264 core 148 r2699+6+41 29a38aa Yuuki [8-bit@4:2:0 X86_64][GCC 5.3.0]
Encoding settings : cabac=1 / ref=5 / deblock=1:-3:-3 / analyse=0x3:0x113 / me=umh / subme=11 / psy=1 / fade_compensate=0.00 / psy_rd=1.00:0.05 / mixed_ref=1 / me_range=32 / chroma_me=1 / trellis=2 / 8x8dct=1 / cqm=0 / deadzone=21,11 / fast_pskip=0 / chroma_qp_offset=-2 / threads=32 / lookahead_threads=5 / sliced_threads=0 / nr=0 / decimate=1 / interlaced=0 / bluray_compat=0 / constrained_intra=0 / fgo=0 / bframes=8 / b_pyramid=2 / b_adapt=2 / b_bias=0 / direct=3 / weightb=1 / open_gop=0 / weightp=2 / keyint=250 / keyint_min=23 / scenecut=40 / intra_refresh=0 / rc_lookahead=40 / rc=crf / mbtree=0 / crf=16.8000 / qcomp=0.60 / qpmin=0:0:0 / qpmax=69:69:69 / qpstep=4 / vbv_maxrate=50000 / vbv_bufsize=40000 / crf_max=0.0 / nal_hrd=none / filler=0 / ip_ratio=1.40 / pb_ratio=1.30 / aq=3:0.90
Language : English
Default : Yes
Forced : No

Audio #1
ID : 2
Format : AC-3
Format/Info : Audio Coding 3
Codec ID : A_AC3
Duration : 1 h 58 min
Bit rate mode : Constant
Bit rate : 384 kb/s
Channel(s) : 6 channels
Channel positions : Front: L C R, Side: L R, LFE
Sampling rate : 48.0 kHz
Frame rate : 31.250 FPS (1536 SPF)
Bit depth : 16 bits
Compression mode : Lossy
Stream size : 324 MiB (3%)
Title : iTunes
Language : Russian
Service kind : Complete Main
Default : Yes
Forced : No

Audio #2
ID : 3
Format : DTS
Format/Info : Digital Theater Systems
Codec ID : A_DTS
Duration : 1 h 57 min
Bit rate mode : Constant
Bit rate : 1 509 kb/s
Channel(s) : 6 channels
Channel positions : Front: L C R, Side: L R, LFE
Sampling rate : 48.0 kHz
Frame rate : 93.750 FPS (512 SPF)
Bit depth : 24 bits
Compression mode : Lossy
Stream size : 1.24 GiB (11%)
Title : Original
Language : English
Default : No
Forced : No

Menu
00:00:00.000 : en:00:00:00.000
00:07:42.587 : en:00:07:42.587
00:16:46.172 : en:00:16:46.172
00:24:08.947 : en:00:24:08.947
00:33:19.998 : en:00:33:19.998
00:42:11.112 : en:00:42:11.112
00:51:07.439 : en:00:51:07.439
00:59:55.717 : en:00:59:55.717
01:08:09.627 : en:01:08:09.627
01:18:35.961 : en:01:18:35.961
01:26:59.089 : en:01:26:59.089
01:35:50.453 : en:01:35:50.453

pb.wtf



Скачать Дыши ради нас через торрент http://img12.lostpic.net/2017/12/30/7cca12f762c0e4c96ade118b45232dff.jpg Скачать фильм Дыши ради нас через торрент бесплантно в хорошем качестве Описание: Его манеры, настойчивость и великолепное чувство юмора с первого взгляда покорили неприступную Диану. После свадьбы молодожены ... 10 10 4
Торрент: Зарегистрирован [2018-01-01 00:47] · скачан: 151 раз
Статус: √ проверено
Размер: 10.79 GB
Как cкачать? Как скачать Дыши ради нас через торрент | qTorrent

% Раздел Тема Автор DL S | L
Фильмы 2017 [DVDrip, WEB-DLRip, HDrip] (DUB, MVO) [ 746 MB ] Дыши ради нас / Breathe [2017 биография BDRip] bober100 Скачать
1 | 0
Фильмы (Blu-ray, BD-Remux, HDDVD) [ 30.56 GB ] Дыши ради нас / Breathe [2017 биография BD Remux 1080p] bober100 Скачать
1 | 0
Фильмы [HD 720p, 1080p] (Хороший звук DUB, MVO) [ 6.07 GB ] Дыши ради нас / Breathe [2017 биография BDRip 720p] bober100 Скачать
1 | 0
Фильмы 2017 [DVDrip, WEB-DLRip, HDrip] (DUB, MVO) [ 1.41 GB ] Дыши ради нас / Breathe [2017 биография BDRip] bober100 Скачать
1 | 0

28-11-2019 20:33  

Отключить всю рекламу на сайте

01-01-2018 05:58 Дыши ради нас Скачать торрент  

Вот 1ого и посматрю pb.wtf



    Дорогой пользователь! Огромная просьба, поблагодарите релизера, оцените раздачу и оставьте свои комментарий, если Вы скачали Дыши ради нас через торрент бесплатно! Внесите свою лепту в развитие PiratBit!
    Комментировать посты могут только пользователи прошедшие не сложную регистрацию
    Показать сообщения:    

    Дыши ради нас через торрент
    Скачать бесплатно Дыши ради нас
    Дыши ради нас скачать торрент
    Дыши ради нас смотреть онлайн
    Cкачать фильм Дыши ради нас бесплатно
    Дыши ради нас скачать торрент в хорошем качестве
    Дыши ради нас смотреть онлайн бесплатно в хорошем качестве


    Вы не можете начинать темы
    Вы не можете отвечать на сообщения
    Вы не можете редактировать свои сообщения
    Вы не можете удалять свои сообщения
    Вы не можете голосовать в опросах
    Вы не можете прикреплять файлы к сообщениям
    Вы можете скачивать файлы