2 сезон

iTunes

MVO

1

2 сезон

iTunes

iTunes

1 сезон

RePack

30

Ultimate

ВАЖНО

ИГРА 18+

pack

RePack

MK11
pack

Легкие деньги

RePack

jed

RePack

fifa19

RePack

RDR2

RePack

NEED FOR SPEED™ PAYBACK

4 сезон

9 сезон

Бесстыжие 9 сезон

Все сериалы

все сериалы на PB.wtf

RePack

FAR CRY 5

Anonymous, доброй ночи, мы не успеваем собрать деньги на оплату серверов за декабрь и январь, помогите нам пожалуйста в это трудное время. В качестве благодарности мы отключим Вам всю рекламу на сайте (укажите свой ник в строку Ваше имя)!

×
  
Magnet ссылка

Иностранец / The Foreigner (Мартин Кэмпбелл) [2017 г., боевик, триллер, BDRip 1080p / 60 FPS, Dub (iTunes), Original] pb.wtf

Иностранец через торрент pb.wtf

Размер: 14.73 GB | Добавлен: 3 года назад | Торрент скачан:1016 раз
Скачать  

01-01-2018 06:53 Иностранец Скачать торрент  

Иностранец / The Foreigner
Год выпуска: 2017
Страна: Великобритания, Китай, США
Жанр: боевик, триллер
Продолжительность: 01:53:52
Перевод: Дубляж iTunes
Субтитры: Английские (полные)

Режиссер: Мартин Кэмпбелл

rating

В ролях: Кэти Льюнг, Джеки Чан, Пирс Броснан, Руфус Джонс, Марк Тэнди, Джон Кронин, Каолан Бирн, Донна Бернард, Аарон Монахэн

Описание: Бывший спецагент, ветеран вьетнамской войны Цюань давно сложил оружие и завёл мирную жизнь. Но после того, как в теракте прямо на глазах погибает его дочь-подросток, видя, что власти не спешат разыскивать преступников, Цюань сам начинает поиск убийцы. Он пойдет на всё, чтобы совершить праведное возмездие…

Качество: BDRip 1080p / 60 FPS by Tiberiumsun69
Формат: MKV
Видео кодек: H.264
Аудио кодек: AC3
Видео: AVC, 1920x804 (2.40:1), 17000 kbps, 59.94 fps, 0.184
Аудио#1: AC3, 6 ch, 48 kHz, 384 Kbps, 16 bit - DUB (itunes)
Аудио#2: DTS, 6 ch, 48 kHz, 1510Kbps, 24 bit - Original

General
Unique ID : 172894019095777870593272817871613411778 (0x82122D469440672A8E790AE8794941C2)
Complete name : D:\Торренты\Иностранец BDRip 1080p 60fps.mkv
Format : Matroska
Format version : Version 4 / Version 2
File size : 14.7 GiB
Duration : 1 h 53 min
Overall bit rate : 18.5 Mb/s
Movie name : The Foreigner (2017) by Tiberiumsun69
Encoded date : UTC 2018-01-01 06:18:30
Writing application : mkvmerge v18.0.0 ('Apricity') 64-bit
Writing library : libebml v1.3.5 + libmatroska v1.4.8

Video
ID : 1
Format : AVC
Format/Info : Advanced Video Codec
Format profile : High@L4.2
Format settings : CABAC / 4 Ref Frames
Format settings, CABAC : Yes
Format settings, ReFrames : 4 frames
Codec ID : V_MPEG4/ISO/AVC
Duration : 1 h 53 min
Bit rate mode : Constant
Bit rate : 17.0 Mb/s
Width : 1 920 pixels
Height : 804 pixels
Display aspect ratio : 2.40:1
Frame rate mode : Constant
Frame rate : 59.940 (60000/1001) FPS
Standard : NTSC
Color space : YUV
Chroma subsampling : 4:2:0
Bit depth : 8 bits
Scan type : Progressive
Bits/(Pixel*Frame) : 0.184
Stream size : 13.2 GiB (90%)
Language : English
Default : Yes
Forced : No
Color range : Limited
Color primaries : BT.709
Transfer characteristics : BT.709
Matrix coefficients : BT.709

Audio #1
ID : 2
Format : AC-3
Format/Info : Audio Coding 3
Codec ID : A_AC3
Duration : 1 h 53 min
Bit rate mode : Constant
Bit rate : 384 kb/s
Channel(s) : 6 channels
Channel positions : Front: L C R, Side: L R, LFE
Sampling rate : 48.0 kHz
Frame rate : 31.250 FPS (1536 SPF)
Bit depth : 16 bits
Compression mode : Lossy
Stream size : 313 MiB (2%)
Language : Russian
Service kind : Complete Main
Default : Yes
Forced : No

Audio #2
ID : 3
Format : DTS
Format/Info : Digital Theater Systems
Codec ID : A_DTS
Duration : 1 h 53 min
Bit rate mode : Constant
Bit rate : 1 509 kb/s
Channel(s) : 6 channels
Channel positions : Front: L C R, Side: L R, LFE
Sampling rate : 48.0 kHz
Frame rate : 93.750 FPS (512 SPF)
Bit depth : 24 bits
Compression mode : Lossy
Stream size : 1.20 GiB (8%)
Language : English
Default : No
Forced : No

Text
ID : 4
Format : UTF-8
Codec ID : S_TEXT/UTF8
Codec ID/Info : UTF-8 Plain Text
Duration : 1 h 44 min
Bit rate : 52 b/s
Count of elements : 1212
Stream size : 40.3 KiB (0%)
Language : English
Default : No
Forced : No

Menu
00:00:00.000 : en:00:00:00.000
00:08:19.541 : en:00:08:19.541
00:15:49.574 : en:00:15:49.574
00:21:47.765 : en:00:21:47.765
00:27:04.164 : en:00:27:04.164
00:32:09.511 : en:00:32:09.511
00:35:24.164 : en:00:35:24.164
00:38:30.934 : en:00:38:30.934
00:43:50.169 : en:00:43:50.169
00:47:38.189 : en:00:47:38.189
00:54:10.497 : en:00:54:10.497
01:01:42.324 : en:01:01:42.324
01:08:07.333 : en:01:08:07.333
01:14:14.033 : en:01:14:14.033
01:18:42.927 : en:01:18:42.927
01:23:26.877 : en:01:23:26.877
01:29:18.812 : en:01:29:18.812
01:38:55.012 : en:01:38:55.012
01:43:45.928 : en:01:43:45.928
01:47:09.298 : en:01:47:09.298

Просьба к переливающим на другие сайты, в оформлении указывайте пожалуйста авторство группы Авторская группа в ВК
pb.wtf



Скачать Иностранец через торрент http://img12.lostpic.net/2017/12/28/71683135e439e29938bf6703f147eee0.jpg Скачать фильм Иностранец через торрент бесплантно в хорошем качестве Описание: Бывший спецагент, ветеран вьетнамской войны Цюань давно сложил оружие и завёл мирную жизнь. Но после того, как в теракте прямо на ... 9.9 10 26
Info! Золотая раздача, скачанное не засчитывается.
Торрент: Зарегистрирован [2018-01-01 06:53] · скачан: 1 016 раз
Статус: √ проверено
Размер: 14.73 GB
Как cкачать? Как скачать Иностранец через торрент | UTorrent



Последний раз редактировалось: Tiberiumsun69 (2018-02-09 08:45), всего редактировалось 2 раз(а)

28-11-2019 20:33  

Отключить всю рекламу на сайте

01-01-2018 06:54 Иностранец Скачать торрент  

С прошедшим новым годом всех и приятного просмотра.pb.wtf



01-01-2018 08:53 Иностранец Скачать торрент  

спасибо Вас тоже, фильм просто шикарныйpb.wtf



01-01-2018 10:56 Иностранец Скачать торрент  

Отличный фильм.Очень хорошо показано состояние отчаянного человека потерявшего последнее и насколько далеко он готов зайти в результате.Таких мало.Честно говоря Джеки хорошо вошел в роль.Несмотря на то что триллеры это далеко не комедии.pb.wtf



03-01-2018 02:42 Иностранец Скачать торрент  

Tiberiumsun69 писал(а):

Отличный фильм.Очень хорошо показано состояние отчаянного человека потерявшего последнее и насколько далеко он готов зайти в результате.Таких мало.Честно говоря Джеки хорошо вошел в роль.Несмотря на то что триллеры это далеко не комедии.

он в комедиях не играл просто в каждом фильме шутки шикарны он всегда играл в боевикахpb.wtf



03-01-2018 04:14 Иностранец Скачать торрент  

Всем привет! Мне фильм очень понравился, старина Джеки молодец хорошо отыграл, старенький такой стал . Качество релиза отменное, продолжай дальше радовать нас хорошими фильмами...PS: От просмотра положительные эмоции pb.wtf



09-01-2018 21:18 Иностранец Скачать торрент  

редкий случай когда фильм очень сильно превзошел ожидания. автору спасибо.pb.wtf



    Дорогой пользователь! Огромная просьба, поблагодарите релизера, оцените раздачу и оставьте свои комментарий, если Вы скачали Иностранец через торрент бесплатно! Внесите свою лепту в развитие PiratBit!
    Комментировать посты могут только пользователи прошедшие не сложную регистрацию
    Показать сообщения:    

    Иностранец через торрент
    Скачать бесплатно Иностранец
    Иностранец скачать торрент
    Иностранец смотреть онлайн
    Cкачать фильм Иностранец бесплатно
    Иностранец скачать торрент в хорошем качестве
    Иностранец смотреть онлайн бесплатно в хорошем качестве


    Вы не можете начинать темы
    Вы не можете отвечать на сообщения
    Вы не можете редактировать свои сообщения
    Вы не можете удалять свои сообщения
    Вы не можете голосовать в опросах
    Вы не можете прикреплять файлы к сообщениям
    Вы можете скачивать файлы