Ссылка на приватное зеркало нашего сайта всего за 1$. Внимание количество ограничено!!!

2 сезон

iTunes

1 сезон

1

iTunes

iTunes

iTunes

1 сезон

RePack

30

ИГРА 18+

pack

ВАЖНО

!!Акция!!

Alien_RageХит недели

RePack

MK11
pack

Забери бонус

RePack

jed

!!Акция!!

Alien_Rage

RePack

fifa19

RePack

Assassins Creed: Odyssey

RePack

NEED FOR SPEED™ PAYBACK

4 сезон

9 сезон

Бесстыжие 9 сезон

Все сериалы

все сериалы на PB.wtf

RePack

FAR CRY 5
  

Баффало 66 / Buffalo '66 (Винсент Галло) [1997, драма, мелодрама, комедия, криминал, BDRip 720p by msltel] MVO, DVO, AVO pb.wtf

Баффало 66 через торрент pb.wtf

Размер: 5.52 GB | Добавлен: 2 года 9 мес. назад | Торрент скачан:52 раза
Скачать  

01-01-2018 07:21 Баффало 66 Скачать торрент  

Название: Баффало 66
Оригинальное название: Buffalo '66
Год выпуска: 1997
Страна: США, Канада
Жанр: драма, мелодрама, комедия, криминал
Продолжительность: 01:49:56
Перевод: профессиональный многоголосый, профессиональный двухголосый, авторский

Режиссер: Винсент Галло
В ролях: Винсент Галло, Кристина Риччи, Бен Газзара, Микки Рурк, Розанна Аркетт, Ян-Майкл Винсент, Анжелика Хьюстон, Кевин Поллак, Алекс Кэррас, Джон Сансон

О фильме: Билли Браун только что вышел из тюрьмы. Он спешит к непонятно за что любимым родителям, и чтобы произвести на них впечатление, по дороге захватывает заложницу. Но дома его не ждали. Более того, мать до сих пор тихо ненавидит Билли за то, что в 1966 году она пропустила исторический матч любимой команды, поскольку именно в этот момент рожала сына. Билли безуспешно пытается завоевать расположение своих ненормальных родителей. Единственный человек, который в этом сумасшедшем доме относится к Билли по-человечески, это его очаровательная заложница...



Качество: BDRip 720p
Формат: MKV
Видео: MPEG-4 AVC, 5973 Кбит/с, 1280x690, 23.976 кадр/с
Аудио 1: русский, AC3, 192 kbps, 2 ch [профессиональный многоголосый, ОРТ]
Аудио 2: русский, AC3, 192 kbps, 2 ch [профессиональный двухголосый, Видеосервис]
Аудио 3: русский, AC3, 192 kbps, 2 ch [авторский, Владимир Завгородний]
Аудио 4: английский, AC3, 640 kbps, 6 ch, 48 kHz [оригинал]
Субтитры: английские
Неименованные главы/чаптеры.
Общее
Уникальный идентификатор : 233633114454328001100937541419340814352 (0xAFC419E2875AA8F9A14DACFB97B65810)
Полное имя : D:\Video\Баффало 66.1997.BDRip.720p by msltel.mkv
Формат : Matroska
Версия формата : Version 4 / Version 2
Размер файла : 5,52 Гбайт
Продолжительность : 1 ч. 49 м.
Общий поток : 7188 Кбит/сек
Название фильма : Rip by msltel
Дата кодирования : UTC 2018-01-01 03:31:23
Программа кодирования : mkvmerge v8.2.0 ('World of Adventure') 64bit
Библиотека кодирования : libebml v1.3.1 + libmatroska v1.4.2

Видео
Идентификатор : 1
Формат : AVC
Формат/Информация : Advanced Video Codec
Профиль формата : High@L4.1
Настройки формата : CABAC / 9 Ref Frames
Параметр CABAC формата : Да
Параметр RefFrames формата : 9 кадров
Идентификатор кодека : V_MPEG4/ISO/AVC
Продолжительность : 1 ч. 49 м.
Битрейт : 5973 Кбит/сек
Ширина : 1280 пикселей
Высота : 690 пикселей
Соотношение сторон : 1,85:1
Режим частоты кадров : Постоянный
Частота кадров : 23,976 (24000/1001) кадра/сек
Цветовое пространство : YUV
Субдискретизация насыщенности : 4:2:0
Битовая глубина : 8 бит
Тип развёртки : Прогрессивная
Бит/(Пиксели*Кадры) : 0.282
Размер потока : 4,58 Гбайт (83%)
Библиотека кодирования : x264 core 146 r2538 121396c
Настройки программы : cabac=1 / ref=9 / deblock=1:-3:-2 / analyse=0x3:0x113 / me=umh / subme=11 / psy=1 / psy_rd=1.00:0.15 / mixed_ref=1 / me_range=32 / chroma_me=1 / trellis=2 / 8x8dct=1 / cqm=0 / deadzone=21,11 / fast_pskip=0 / chroma_qp_offset=-3 / threads=6 / lookahead_threads=1 / sliced_threads=0 / nr=0 / decimate=1 / interlaced=0 / bluray_compat=0 / constrained_intra=0 / bframes=12 / b_pyramid=2 / b_adapt=2 / b_bias=0 / direct=1 / weightb=1 / open_gop=0 / weightp=2 / keyint=230 / keyint_min=23 / scenecut=40 / intra_refresh=0 / rc_lookahead=40 / rc=crf / mbtree=0 / crf=18.8 / qcomp=0.60 / qpmin=0 / qpmax=69 / qpstep=4 / vbv_maxrate=62500 / vbv_bufsize=78125 / crf_max=0.0 / nal_hrd=none / filler=0 / ip_ratio=1.40 / pb_ratio=1.30 / aq=1:1.00
Язык : English
Default : Да
Forced : Нет

Аудио #1
Идентификатор : 2
Формат : AC-3
Формат/Информация : Audio Coding 3
Идентификатор кодека : A_AC3
Продолжительность : 1 ч. 49 м.
Вид битрейта : Постоянный
Битрейт : 192 Кбит/сек
Каналы : 2 канала
Расположение каналов : Front: L R
Частота : 48,0 КГц
Частота кадров : 31,250 кадров/сек (1536 SPF)
Битовая глубина : 16 бит
Метод сжатия : С потерями
Размер потока : 151 Мбайт (3%)
Заголовок : MVO.OPT
Язык : Russian
ServiceKind/String : Complete Main
Default : Да
Forced : Нет

Аудио #2
Идентификатор : 3
Формат : AC-3
Формат/Информация : Audio Coding 3
Идентификатор кодека : A_AC3
Продолжительность : 1 ч. 49 м.
Вид битрейта : Постоянный
Битрейт : 192 Кбит/сек
Каналы : 2 канала
Расположение каналов : Front: L R
Частота : 48,0 КГц
Частота кадров : 31,250 кадров/сек (1536 SPF)
Битовая глубина : 16 бит
Метод сжатия : С потерями
Размер потока : 151 Мбайт (3%)
Заголовок : DVO.Видеосервис
Язык : Russian
ServiceKind/String : Complete Main
Default : Нет
Forced : Нет

Аудио #3
Идентификатор : 4
Формат : AC-3
Формат/Информация : Audio Coding 3
Идентификатор кодека : A_AC3
Продолжительность : 1 ч. 49 м.
Вид битрейта : Постоянный
Битрейт : 192 Кбит/сек
Каналы : 2 канала
Расположение каналов : Front: L R
Частота : 48,0 КГц
Частота кадров : 31,250 кадров/сек (1536 SPF)
Битовая глубина : 16 бит
Метод сжатия : С потерями
Размер потока : 151 Мбайт (3%)
Заголовок : Владимир Завгородний
Язык : Russian
ServiceKind/String : Complete Main
Default : Нет
Forced : Нет

Аудио #4
Идентификатор : 5
Формат : AC-3
Формат/Информация : Audio Coding 3
Идентификатор кодека : A_AC3
Продолжительность : 1 ч. 49 м.
Вид битрейта : Постоянный
Битрейт : 640 Кбит/сек
Каналы : 2 канала
Расположение каналов : Front: L R
Частота : 48,0 КГц
Частота кадров : 31,250 кадров/сек (1536 SPF)
Битовая глубина : 16 бит
Метод сжатия : С потерями
Размер потока : 503 Мбайт (9%)
Заголовок : original
Язык : English
ServiceKind/String : Complete Main
Default : Нет
Forced : Нет

Текст
Идентификатор : 6
Формат : UTF-8
Идентификатор кодека : S_TEXT/UTF8
Идентификатор кодека/Информация : UTF-8 Plain Text
Продолжительность : 1 ч. 49 м.
Битрейт : 53 бит/сек
ElementCount : 1309
Размер потока : 42,6 Кбайт (0%)
Заголовок : английские
Язык : English
Default : Нет
Forced : Нет

Меню
00:00:00.000 : :Chapter 01
00:03:22.201 : :Chapter 02
00:07:25.236 : :Chapter 03
00:15:06.946 : :Chapter 04
00:19:54.734 : :Chapter 05
00:28:50.186 : :Chapter 06
00:33:51.738 : :Chapter 07
00:39:12.016 : :Chapter 08
00:45:43.532 : :Chapter 09
00:52:10.126 : :Chapter 10
00:57:26.776 : :Chapter 11
01:03:11.370 : :Chapter 12
01:09:00.344 : :Chapter 13
01:17:52.834 : :Chapter 14
01:26:43.363 : :Chapter 15
01:34:14.231 : :Chapter 16
01:42:01.406 : :Chapter 17
01:45:10.262 : :Chapter 18
01:49:51.251 : :Chapter 19
pb.wtf



Скачать Баффало 66 через торрент https://c.radikal.ru/c35/1801/08/dd86bf7ba810.jpg Скачать фильм Баффало 66 через торрент бесплантно в хорошем качестве О фильме: Билли Браун только что вышел из тюрьмы. Он спешит к непонятно за что любимым родителям, и чтобы произвести на них впечатление, по ... 1 10 1
Info! Золотая раздача, скачанное не засчитывается.
Торрент: Зарегистрирован [2018-01-01 07:21] · скачан: 52 раз
Статус: √ проверено
Размер: 5.52 GB
Как cкачать? Как скачать Баффало 66 через торрент | qTorrent

28-11-2019 20:33  

Отключить всю рекламу на сайте

    Дорогой пользователь! Огромная просьба, поблагодарите релизера, оцените раздачу и оставьте свои комментарий, если Вы скачали Баффало 66 через торрент бесплатно! Внесите свою лепту в развитие PiratBit!
    Комментировать посты могут только пользователи прошедшие не сложную регистрацию
    Показать сообщения:    

    Баффало 66 через торрент
    Скачать бесплатно Баффало 66
    Баффало 66 скачать торрент
    Баффало 66 смотреть онлайн
    Cкачать фильм Баффало 66 бесплатно
    Баффало 66 скачать торрент в хорошем качестве
    Баффало 66 смотреть онлайн бесплатно в хорошем качестве


    Вы не можете начинать темы
    Вы не можете отвечать на сообщения
    Вы не можете редактировать свои сообщения
    Вы не можете удалять свои сообщения
    Вы не можете голосовать в опросах
    Вы не можете прикреплять файлы к сообщениям
    Вы можете скачивать файлы