Marvel's Avengers Deluxe Edition (супер цена) 159р. Внимание количество ограничено!!!

2 сезон

iTunes

iTunes

1

iTunes

iTunes

iTunes

WEBRip

iTunes

30
pack

Новость дня

ВАЖНО

!!Акция!!

Alien_RageХит недели

RePack

Horizon Zero Dawn

ИГРА 18+

pack

RePack

jed

!!Акция!!

Alien_Rage

RePack

fifa19

RePack

Assassins Creed: Odyssey

RePack

NEED FOR SPEED™ PAYBACK

4 сезон

9 сезон

Бесстыжие 9 сезон

Все сериалы

все сериалы на PB.wtf

RePack

FAR CRY 5
  

Другая Жизнь / OtherLife (Бен С. Лукас) [2017, фантастика, триллер, криминал, детектив, WEB-DL 720p] MVO [GreenРай Studio] pb.wtf

Другая Жизнь через торрент pb.wtf

Размер: 2.9 GB | Добавлен: 2 года 8 мес. назад | Торрент скачан:461 раз
Скачать  

01-01-2018 15:42 Другая Жизнь Скачать торрент  

ДругаяЖизнь / OtherLifeГод выпуска: 2017
Страна: Австралия
Жанр: фантастика, триллер, криминал, детектив
Продолжительность: 01:35:55
Перевод: Любительский (многоголосый) -
Субтитры: английские

Режиссер: Бен С. Лукас

rating

В ролях:

Джессика Де Гау, Томас Кокерел, Т.Дж. Пауэр, Лайам Грэхэм, Кларенс Джон Райан, Сара Хопкинс, Хоа Сюаньдэ, Адам Ти Перкинс, Анна Филп

Описание:

Рэн Амари - главный изобретатель нового революционного препарата. ДругаяЖизнь расширяет восприятие времени и создаёт виртуальную реальность в голове человека. С ДругойЖизнью доли секунд в реальном времени ощущаются, как часы или дни. Пока Рэн и её коллеги пытаются запустить препарат в производство, правительство решает использовать его как радикальное решение для переполненных тюрем. С помощью препарата можно создать виртуальные камеры, где преступники могут отбывать долгий срок всего за минуты в реальном времени. Рэн идёт против правительства и оказывается в тюремной клетке собственного разума.

Качество: WEB-DL 720p
Формат: MKV
Видео кодек: H.264
Аудио кодек: AC3

Видео: 4000 Кбит/с, 1280x528
Аудио#1: AC3, 2 ch, 384 Кбит/с

скриншот  скриншот  скриншот  

Общее
Уникальный идентификатор : 234624687489934515043880825895100589801 (0xB0831235C4A2B8AC9DACFBAA621BA6E9)
Полное имя : D:\OtherLife.2017.P.WEB-DL.720p.mkv
Формат : Matroska
Версия формата : Version 4 / Version 2
Размер файла : 2,90 Гбайт
Продолжительность : 1 ч. 36 м.
Режим общего битрейта : Постоянный
Общий поток : 4295 Кбит/сек
Дата кодирования : UTC 2017-12-25 14:21:34
Программа кодирования : mkvmerge v8.3.0 ('Over the Horizon') 64bit
Библиотека кодирования : libebml v1.3.1 + libmatroska v1.4.2

Видео
Идентификатор : 1
Формат : AVC
Формат/Информация : Advanced Video Codec
Профиль формата : Main@L3.1
Параметр CABAC формата : Да
Параметр ReFrames формата : 3 кадра
Параметр GOP формата : M=4, N=15
Идентификатор кодека : V_MPEG4/ISO/AVC
Продолжительность : 1 ч. 36 м.
Вид битрейта : Постоянный
Битрейт : 4000 Кбит/сек
Ширина : 1280 пикселей
Высота : 528 пикселей
Соотношение сторон : 2,40:1
Режим частоты кадров : Постоянный
Частота кадров : 24,000 кадра/сек
Стандарт вещания : NTSC
Цветовое пространство : YUV
Субдискретизация насыщенности : 4:2:0
Битовая глубина : 8 бит
Тип развёртки : Прогрессивная
Бит/(Пиксели*Кадры) : 0.247
Размер потока : 2,58 Гбайт (89%)
Язык : English
Default : Да
Forced : Нет
Цветовой диапазон : Limited

Аудио
Идентификатор : 2
Формат : AC-3
Формат/Информация : Audio Coding 3
Расширение режима : CM (complete main)
Параметр Endianness формата : Big
Идентификатор кодека : A_AC3
Продолжительность : 1 ч. 36 м.
Вид битрейта : Постоянный
Битрейт : 384 Кбит/сек
Каналы : 2 канала
Расположение каналов : Front: L R
Частота : 48,0 КГц
Частота кадров : 31,250 кадров/сек (1536 spf)
Метод сжатия : С потерями
Размер потока : 265 Мбайт (9%)
Default : Да
Forced : Нет

pb.wtf



Скачать Другая Жизнь через торрент http://i97.fastpic.ru/big/2017/1103/31/c9c9e9b2e641bb1aa83f117bb26e1a31.png Скачать фильм Другая Жизнь через торрент бесплантно в хорошем качестве Описание: Рэн Амари - главный изобретатель нового революционного препарата. ДругаяЖизнь расширяет восприятие времени и создаёт виртуальную ... 8 10 9
Торрент: Зарегистрирован [2018-01-01 15:42] · скачан: 461 раз
Статус: T временная
Размер: 2.9 GB
Как cкачать? Как скачать Другая Жизнь через торрент | qTorrent

% Раздел Тема Автор DL S | L
T Фильмы (WEB-DL 720p, 1080p) [ 4.21 GB ] ДругаяЖизнь / OtherLife [2017 WEBRip 1080p] MVO [HDRezka Studio] bober100 Скачать
4 | 0
T Фильмы (мультфильмы) cо спонсором показа (Новинки AVI/MKV) [ 1.37 GB ] Другая Жизнь / OtherLife [2017 WEB-DLRip] MVO [GreenРай Studio] bober100 Скачать
1 | 0
T Релизы по Парсеру [Игры, Сериалы и Фильмы и другое...] [ 1.37 GB ] Другая жизнь / OtherLife [2017 WEB-DLRip Любительский ] Dusster Скачать
1 | 0
T Релизы по Парсеру [Игры, Сериалы и Фильмы и другое...] [ 1.45 GB ] Другая Жизнь / OtherLife [2017 WEB-DLRip-AVC] [MVO] killermax2013 Скачать
1 | 0

28-11-2019 20:33  

Отключить всю рекламу на сайте

01-01-2018 20:04 Другая Жизнь Скачать торрент  

Ну чё почём?pb.wtf



02-01-2018 17:15 Другая Жизнь Скачать торрент  

Да с такой рекламой и смотреть не стоит ! Начал смотреть, снес через 5 мин. Реклама задолбала ! По мне, так TS лучше смотреть, чем такое исполнение.pb.wtf



02-01-2018 21:18 Другая Жизнь Скачать торрент  

фильм достойный, редко сейчас удается посмотреть кино а не шоу.pb.wtf



08-03-2018 20:46 Другая Жизнь Скачать торрент  

похожая серия есть в "black mirror"pb.wtf



    Дорогой пользователь! Огромная просьба, поблагодарите релизера, оцените раздачу и оставьте свои комментарий, если Вы скачали Другая Жизнь через торрент бесплатно! Внесите свою лепту в развитие PiratBit!
    Комментировать посты могут только пользователи прошедшие не сложную регистрацию
    Показать сообщения:    

    Другая Жизнь через торрент
    Скачать бесплатно Другая Жизнь
    Другая Жизнь скачать торрент
    Другая Жизнь смотреть онлайн
    Cкачать фильм Другая Жизнь бесплатно
    Другая Жизнь скачать торрент в хорошем качестве
    Другая Жизнь смотреть онлайн бесплатно в хорошем качестве


    Вы не можете начинать темы
    Вы не можете отвечать на сообщения
    Вы не можете редактировать свои сообщения
    Вы не можете удалять свои сообщения
    Вы не можете голосовать в опросах
    Вы не можете прикреплять файлы к сообщениям
    Вы можете скачивать файлы