Всегда рабочее зеркало без VPN и Proxy просто перед .vidak.icu напиши любое слово или цифру, Пример http://ummy.vidak.icu

MVO

2 сезон

2 сезон

1

1 сезон

iTunes

2 сезон

13

1 сезон

Распродажа

pack

Рекомендуем

Пиратка

30

ВАЖНО

RePack

MK11

RePack

jed

RePack

fifa19

RePack

RDR2

RePack

NEED FOR SPEED™ PAYBACK

Кинопоиск HD

6 сезон

 Острые козырьки 6 сезон

Все сериалы

все сериалы на PB.wtf

RePack

FAR CRY 5

Anonymous, нам критически не хватает 5601 руб. на оплату серверов и переферии за Апрель, помоги нам пожалуйста, вся надежда только на тебя. В благодарность мы отключим тебе всю рекламу на сайте!

×
  
Magnet ссылка

Новый Comedy Club. Новогодний выпуск (1-2 выпуск из 2) [2017, ТВ-шоу, юмор, WEB-DLRip] pb.wtf

Новый Comedy Club. Новогодний выпуск через торрент pb.wtf

Размер: 1.22 GB | Добавлен: 4 года 4 мес. назад | Торрент скачан:185 раз
Смотреть онлайн Новый Comedy Club. Новогодний выпуск | Скачать    Ребята, помогите собрать деньги на оплату серверов!!!

01-01-2018 15:59 Новый Comedy Club. Новогодний выпуск Скачать торрент  

Новый Comedy Club. Новогодний выпуск (1-2 выпуск из 2)Год выпуска: 2017
Страна: Россия
Жанр: ТВ-шоу, юмор
Продолжительность: 2 x 00:45:00
Перевод: Оригинальный
Субтитры: отсутствуют

В ролях:

Гарик Мартиросян, Павел Воля, Гарик Харламов, Тимур Батрутдинов, Александр Ревва, Дмитрий Сорокин, Зураб Матуа, Андрей Аверин, Марина Кравец, Антон Лирник, Андрей Молочный, Александр Незлобин, Виктор Васильев (III), Семён Слепаков

Описание:

На ТНТ решили отказаться от банальных голубых огоньков и устроили новогодний музыкальный баттл. Включайте ТНТ ровно в 23.00, накладывайте салаты, и с набитым ртом подпевайте своим любимым звездам! В вокальном новогоднем баттле сойдутся звезды «Дома-2», шоу «ТАНЦЫ», актеры комедийных проектов «Импровизация», «Однажды в России», Comedy Woman, ситкомов «Ольга» и «Универ», а также комики из Stand Up. Оценивать исполнительское мастерство участников будут Михаил Галустян и Сергей Светлаков. Победитель поедет в Лас-Вегас.

Качество: WEB-DLRip
Формат: AVI
Видео кодек: XviD
Аудио кодек: MP3

Видео: 1800 Кбит/с, 720x400
Аудио#1: MP3, 2 ch, 128 Кбит/с
скриншот  скриншот  скриншот   скриншот   скриншот   скриншот  

Общее
Полное имя : D:\Comedy Club. Новогодний. Karaoke Star (2017-2018)_WEB-DLRip\Comedy Club. Новогодний. Karaoke Star. Часть 1 (2017.12.31)_WEB-DLRip.avi
Формат : AVI
Формат/Информация : Audio Video Interleave
Размер файла : 584 Мбайт
Продолжительность : 42 м. 9 с.
Общий поток : 1938 Кбит/сек
Название фильма : Comedy Club (2017.12.31)_nnm-club.name
Программа кодирования : VirtualDubModRus 1.5.10.2 (build 2542/release)
Библиотека кодирования : VirtualDubMod build 2542/release

Видео
Идентификатор : 0
Формат : MPEG-4 Visual
Профиль формата : Advanced Simple@L5
Параметр BVOP формата : 1
Параметр QPel формата : Нет
Параметр GMC формата : Без точки перехода
Параметр матрицы формата : Default (H.263)
Идентификатор кодека : XVID
Идентификатор кодека/Подсказка : XviD
Продолжительность : 42 м. 9 с.
Битрейт : 1800 Кбит/сек
Ширина : 720 пикселей
Высота : 400 пикселей
Соотношение сторон : 16:9
Частота кадров : 25,000 кадров/сек
Цветовое пространство : YUV
Субдискретизация насыщенности : 4:2:0
Битовая глубина : 8 бит
Тип развёртки : Прогрессивная
Метод сжатия : С потерями
Бит/(Пиксели*Кадры) : 0.250
Размер потока : 543 Мбайт (93%)
Библиотека кодирования : XviD 67

Аудио
Идентификатор : 1
Формат : MPEG Audio
Версия формата : Version 1
Профиль формата : Layer 3
Режим : Joint stereo
Расширение режима : MS Stereo
Идентификатор кодека : 55
Идентификатор кодека/Подсказка : MP3
Продолжительность : 42 м. 9 с.
Вид битрейта : Постоянный
Битрейт : 128 Кбит/сек
Каналы : 2 канала
Частота : 44,1 КГц
Метод сжатия : С потерями
Размер потока : 38,6 Мбайт (7%)
Выравнивание : Разделение по промежуткам
Продолжительность промежутка : 40 мс. (1,00 видеокадр)
Время предзагрузки промежутка : 500 мс.
Библиотека кодирования : LAME3.99.5ЄЄЄЄЄЄЄЄЄЄ

pb.wtf



Скачать Новый Comedy Club. Новогодний выпуск через торрент http://i98.fastpic.ru/big/2017/1106/12/8985abb6906b5eba6d91024b6dc55412.png Скачать, смотреть онлайн Новый Comedy Club. Новогодний выпуск бесплантно в хорошем качестве Описание: На ТНТ решили отказаться от банальных голубых огоньков и устроили новогодний музыкальный баттл. Включайте ТНТ ровно в 200, ... 8.2 10 5
Торрент: Зарегистрирован [2018-01-01 15:59] · скачан: 185 раз
Статус: √ проверено
Размер: 1.22 GB
Как cкачать? Как скачать Новый Comedy Club. Новогодний выпуск через торрент | UTorrent

% Раздел Тема Автор DL S | L
Comedy Club - Комеди Клаб new [ 8.73 GB ] Новый Comedy Club. Новогодний выпуск "Караоке Star" [2 части из 2] [31.12.2018-01.01.2019] [2018 ТВ-шоу юмор HDTV 1080i] bober100 Скачать
1 | 0
Comedy Club - Комеди Клаб new [ 1.12 GB ] Новый Comedy Club. Новогодний выпуск "Караоке Star" [2 части из 2] [31.12.2018-01.01.2019] [2018 ТВ-шоу юмор SATRip] bober100 Скачать
1 | 0
Comedy Club - Комеди Клаб new [ 577 MB ] Новый Comedy Club [2013 Телепередача Юмор SATRip] эфир от 31.12.2013 1mpulse2k20 Скачать
1 | 0
Comedy Club - Комеди Клаб new [ 623 MB ] Новый Comedy Club [2014 Телепередача Юмор SATRip] эфир от 1.01.2014 1mpulse2k20 Скачать
1 | 0
Comedy Club - Комеди Клаб new [ 2.4 GB ] Новый Comedy Club. Новогодний выпуск [2017 ТВ-шоу юмор WEB-DL 720p] bober100 Скачать
1 | 0
Comedy Club - Комеди Клаб new [ 1.16 GB ] Новый Comedy Club. Новогодний выпуск [2017 Юмористическое шоу SATRip] bober100 Скачать
1 | 0
Comedy Club - Комеди Клаб new [ 584 MB ] Новый Comedy Club. Новогодний выпуск [2015 Телепередача Юмор SATRip] эфир от 1.01.2015 1mpulse2k20 Скачать
1 | 0

28-11-2019 20:33  

Отключить всю рекламу на сайте

    Дорогой пользователь! Огромная просьба, поблагодарите релизера, оцените раздачу и оставьте свои комментарий, если Вы скачали Новый Comedy Club. Новогодний выпуск через торрент бесплатно!
    Комментировать посты могут только пользователи прошедшие не сложную регистрацию
    Показать сообщения:    

    Новый Comedy Club. Новогодний выпуск через торрент
    Скачать бесплатно Новый Comedy Club. Новогодний выпуск
    Новый Comedy Club. Новогодний выпуск скачать торрент
    Новый Comedy Club. Новогодний выпуск смотреть онлайн
    Cкачать фильм Новый Comedy Club. Новогодний выпуск бесплатно
    Новый Comedy Club. Новогодний выпуск скачать торрент в хорошем качестве
    Новый Comedy Club. Новогодний выпуск смотреть онлайн бесплатно в хорошем качестве


    Вы не можете начинать темы
    Вы не можете отвечать на сообщения
    Вы не можете редактировать свои сообщения
    Вы не можете удалять свои сообщения
    Вы не можете голосовать в опросах
    Вы не можете прикреплять файлы к сообщениям
    Вы можете скачивать файлы