Ссылка на приватное зеркало всего за 1$. Внимание количество ограничено!!!

OK

1+1

iTunes

мы

OK

1

WEB-DLRip

Джокер

Пифагор

Ведьмак / The Witcher сериал

iTunes

ПШазам

ОК

Оно 2

iTunes

30
pack

Вам бонус

ВАЖНО

!!Акция!!

Alien_RageХит недели

RePack

Resident Evil 21

ИГРА 18+

pack

RePack

jed

RePack

fifa19

RePack

Assassins Creed: Odyssey

RePack

NEED FOR SPEED™ PAYBACK

4 сезон

9 сезон

Бесстыжие 9 сезон

Все сериалы

все сериалы на PB.wtf

RePack

FAR CRY 5
  

Мать Крампуса / Mother Krampus (Джеймс Класс) [2017, Ужасы, BDRip 720p] MVO [Синема УС] pb.wtf

Мать Крампуса через торрент pb.wtf

Размер: 3.75 GB | Добавлен: 2 года назад | Торрент скачан:100 раз
Скачать  

01-01-2018 16:27 Мать Крампуса Скачать торрент  

Мать Крампуса / Mother KrampusГод выпуска: 2017
Страна: Великобритания
Жанр: Ужасы
Продолжительность: 01:29:16
Перевод: Любительский (многоголосый) - [Синема УС]
Субтитры: отсутствуют

Режиссер: Джеймс Класс

rating

В ролях:

Клэр-Мария Фокс, Фэй Гудвин, Тони Мандерс, Мишель Арчер, Тара МакГоурэн, Дотти Джеймс, Оливер Эбсуорт, Сиан Крисп, Эми Барроуз, Бекка Хирани

Описание:

Рождественский или новогодний хоррор - совершенно особый подвид фильмов ужасов. Праздничный, добрый, семейный... Ну ладно, просто праздничный. А Крампус, демонический антипод Санта-Клауса, - тот персонаж, который поможет сделать праздник незабываемым.
В последние годы этот фольклорный образ стали довольно активно использовать в кино: вспомнить хотя бы "Крампуса" Майкла Догерти или антологию "Рождественские страшилки". Режиссеру Джеймсу Классу тема также интересна, но он решил подойти к ней с другой стороны. Класс познакомит зрителя не с Крампусом, а с его мамашей.

Качество: BDRip 720p
Формат: MKV
Видео кодек: H.264
Аудио кодек: AC3

Видео: 5561 Кбит/с, 1280x536
Аудио#1: AC3, 2 ch, 448 Кбит/с

скриншот   скриншот   скриншот  

Общее
Уникальный идентификатор : 180539892020720308761251566958816179333 (0x87D2B7EA5E14E5FCBCBFCF89523AB485)
Полное имя : D:\Mother.Krampus.2017.P.BDRip.72Op.mkv
Формат : Matroska
Версия формата : Version 2
Размер файла : 3,75 Гбайт
Продолжительность : 1 ч. 29 м.
Режим общего битрейта : Переменный
Общий поток : 6011 Кбит/сек
Дата кодирования : UTC 2017-12-25 11:24:42
Программа кодирования : mkvmerge v8.3.0 ('Over the Horizon') 64bit
Библиотека кодирования : libebml v1.3.1 + libmatroska v1.4.2

Видео
Идентификатор : 1
Формат : AVC
Формат/Информация : Advanced Video Codec
Профиль формата : High@L4.1
Параметр CABAC формата : Да
Параметр ReFrames формата : 12 кадров
Идентификатор кодека : V_MPEG4/ISO/AVC
Продолжительность : 1 ч. 29 м.
Вид битрейта : Переменный
Битрейт : 5561 Кбит/сек
Максимальный битрейт : 6100 Кбит/сек
Ширина : 1280 пикселей
Высота : 536 пикселей
Соотношение сторон : 2,40:1
Режим частоты кадров : Постоянный
Частота кадров : 23,976 (24000/1001) кадра/сек
Стандарт вещания : Component
Цветовое пространство : YUV
Субдискретизация насыщенности : 4:2:0
Битовая глубина : 8 бит
Тип развёртки : Прогрессивная
Бит/(Пиксели*Кадры) : 0.331
Размер потока : 3,39 Гбайт (91%)
Default : Да
Forced : Нет
Цветовой диапазон : Limited
Основные цвета : BT.709
Характеристики трансфера : BT.709
Коэффициенты матрицы : BT.709

Аудио
Идентификатор : 2
Формат : AC-3
Формат/Информация : Audio Coding 3
Расширение режима : CM (complete main)
Параметр Endianness формата : Big
Идентификатор кодека : A_AC3
Продолжительность : 1 ч. 29 м.
Вид битрейта : Постоянный
Битрейт : 448 Кбит/сек
Каналы : 2 канала
Расположение каналов : Front: L R
Частота : 48,0 КГц
Частота кадров : 31,250 кадров/сек (1536 spf)
Метод сжатия : С потерями
Размер потока : 286 Мбайт (7%)
Default : Да
Forced : Нет

pb.wtf



Скачать Мать Крампуса через торрент https://d.radikal.ru/d21/1801/12/42abe372da5e.jpg Скачать фильм Мать Крампуса через торрент бесплантно в хорошем качестве Описание: Рождественский или новогодний хоррор - совершенно особый подвид фильмов ужасов. Праздничный, добрый, семейный... Ну ладно, просто ... 7.6 10 8
Торрент: Зарегистрирован [2018-01-01 16:27] · скачан: 100 раз
Статус: T временная
Размер: 3.75 GB
Как cкачать? Как скачать Мать Крампуса через торрент | qTorrent

% Раздел Тема Автор DL S | L
T Фильмы (мультфильмы) cо спонсором показа (Новинки AVI/MKV) [ 1.36 GB ] Мать Крампуса / Mother Krampus [2017 HDRip] MVO [Синема УС] bober100 Скачать
1 | 0

28-11-2019 20:33  

Отключить всю рекламу на сайте

01-01-2018 16:41 Мать Крампуса Скачать торрент  

Дождусь когда выйдет их блокбастер "кузина Крампуса"pb.wtf



01-01-2018 18:21 Мать Крампуса Скачать торрент  

DiasIV писал(а):

Дождусь когда выйдет их блокбастер "кузина Крампуса"

pb.wtf



02-01-2018 07:07 Мать Крампуса Скачать торрент  

похожа на бомжиху...pb.wtf



02-01-2018 08:45 Мать Крампуса Скачать торрент  

Настоящий "трэшак" pb.wtf



    Дорогой пользователь! Огромная просьба, поблагодарите релизера, оцените раздачу и оставьте свои комментарий, если Вы скачали Мать Крампуса через торрент бесплатно! Внесите свою лепту в развитие PiratBit!
    Комментировать посты могут только пользователи прошедшие не сложную регистрацию
    Показать сообщения:    

    Мать Крампуса через торрент
    Скачать бесплатно Мать Крампуса
    Мать Крампуса скачать торрент
    Мать Крампуса смотреть онлайн
    Cкачать фильм Мать Крампуса бесплатно
    Мать Крампуса скачать торрент в хорошем качестве
    Мать Крампуса смотреть онлайн бесплатно в хорошем качестве


    Вы не можете начинать темы
    Вы не можете отвечать на сообщения
    Вы не можете редактировать свои сообщения
    Вы не можете удалять свои сообщения
    Вы не можете голосовать в опросах
    Вы не можете прикреплять файлы к сообщениям
    Вы можете скачивать файлы