2 сезон

iTunes

MVO

1

2 сезон

iTunes

iTunes

1 сезон

RePack

30

Новинка

ВАЖНО

ИГРА 18+

pack

RePack

MK11
pack

Легкие деньги

RePack

jed

RePack

fifa19

RePack

RDR2

RePack

NEED FOR SPEED™ PAYBACK

4 сезон

9 сезон

Бесстыжие 9 сезон

Все сериалы

все сериалы на PB.wtf

RePack

FAR CRY 5

Anonymous, добрый вечер, мы не успеваем собрать деньги на оплату серверов за декабрь и январь, помогите нам пожалуйста в это трудное время. В качестве благодарности мы отключим Вам всю рекламу на сайте (укажите свой ник в строку Ваше имя)!

×
  
Magnet ссылка

Скайлайн 2 / Beyond Skyline (Лайам О’Доннелл / Liam O'Donnell) [2017, ужасы, фантастика, боевик, BDRip-AVC] Dub [Лицензия] pb.wtf

Скайлайн 2 через торрент pb.wtf

Размер: 2.21 GB | Добавлен: 2 года 11 мес. назад | Торрент скачан:362 раза
Скачать  

01-01-2018 21:09 Скайлайн 2 Скачать торрент  

Скайлайн 2
Beyond Skyline


Страна: Сингапур, Индонезия, Китай, Великобритания, Канада, США
Жанр: ужасы, фантастика, боевик, триллер, приключения

Год выпуска: 2017
Продолжительность: 01:46:38

Перевод: Профессиональный (полное дублирование) [Blu-ray RUS]
Субтитры: английские (полные, SDH)
Оригинальная аудиодорожка: английский

Режиссер: Лайам О’Доннелл / Liam O'Donnell

В ролях: Фрэнк Грилло, Бояна Новакович, Ико Уайс, Каллэн Мулвей, Валентайн Пайен, Бетти Гэбриел, Джек Чоссе, Кевин О’Доннелл, Крис Т. Адамс, Тони Блэк, Памелин Чи, Антонио Фаргас

Описание:
В мире - хаос и паника. Небо закрыли нависающие над городами космические корабли, которые через огромные столпы света затягивают к себе на борт тысячи людей прямо с улиц. Чтобы найти похищенного сына, бесстрашному детективу придется проникнуть на корабль агрессивных пришельцев, отбить атаку этих разъяренных тварей и... попытаться вернуть планету землянам.



Релиз:

Автор рипа: stalkerok | Моя группа

Сэмпл

Качество видео: BDRip-AVC [Beyond Skyline (2017) Blu-ray Disc -BLUEBIRD]
Формат видео: MKV
Видео кодек: AVC
Аудио кодек: AC3
Видео: 2128 Кбит/сек, 1108*464 (2,40:1), в 23,976 кадра/сек, AVC
Аудио #1: русский, 448 Кбит/сек, 48 КГц, 5.1, AC3
Аудио #2: английский, 384 Кбит/сек, 48 КГц, 5.1, AC3
Навигация по главам: есть

---[Information] [01.01.2018 23:32:48] x264 [info]: frame I:1052 Avg QP:16.46 size: 49598
---[Information] [01.01.2018 23:32:48] x264 [info]: frame P:43185 Avg QP:18.65 size: 20384
---[Information] [01.01.2018 23:32:48] x264 [info]: frame B:109182 Avg QP:21.29 size: 7048

Общее
Уникальный идентификатор : 182659393013511233855950680134665726557 (0x896AEB61EA887233B5A617CDBF616A5D)
Полное имя : M:\$new\Beyond Skyline (2017)\Beyond.Skyline.2017.BDRip-AVC.RUS.ENG.stalkerok.new-team.mkv
Формат : Matroska
Версия формата : Version 4 / Version 2
Размер файла : 2,21 Гбайт
Продолжительность : 1 ч. 46 м.
Общий поток : 2962 Кбит/сек
Название фильма : Beyond Skyline (2017) (Rip by stalkerok)
Дата кодирования : UTC 2018-02-03 14:25:19
Программа кодирования : mkvmerge v8.6.1 ('Flying') 64bit
Библиотека кодирования : libebml v1.3.3 + libmatroska v1.4.4

Видео
Идентификатор : 3
Формат : AVC
Формат/Информация : Advanced Video Codec
Профиль формата : High@L4.1
Параметр CABAC формата : Да
Параметр ReFrames формата : 14 кадров
Идентификатор кодека : V_MPEG4/ISO/AVC
Продолжительность : 1 ч. 46 м.
Битрейт : 2128 Кбит/сек
Ширина : 1108 пикселей
Высота : 464 пикселя
Соотношение сторон : 2,40:1
Режим частоты кадров : Постоянный
Частота кадров : 23,976 (24000/1001) кадра/сек
Цветовое пространство : YUV
Субдискретизация насыщенности : 4:2:0
Битовая глубина : 8 бит
Тип развёртки : Прогрессивная
Бит/(Пиксели*Кадры) : 0.173
Размер потока : 1,59 Гбайт (72%)
Заголовок : Beyond Skyline (2017) (Rip by stalkerok)
Библиотека кодирования : x264 core 152 r2851kMod ba24899
Настройки программы : cabac=1 / ref=14 / deblock=1:-3:-2 / analyse=0x3:0x133 / me=umh / subme=11 / psy=1 / fade_compensate=0.00 / psy_rd=1.00:0.00 / mixed_ref=1 / me_range=32 / chroma_me=1 / trellis=2 / 8x8dct=1 / cqm=0 / deadzone=21,11 / fast_pskip=0 / chroma_qp_offset=-2 / threads=12 / lookahead_threads=3 / sliced_threads=0 / nr=0 / decimate=1 / interlaced=0 / bluray_compat=0 / constrained_intra=0 / bframes=14 / b_pyramid=2 / b_adapt=2 / b_bias=0 / direct=3 / weightb=1 / open_gop=0 / weightp=2 / keyint=240 / keyint_min=23 / scenecut=40 / intra_refresh=0 / rc_lookahead=60 / rc=crf / mbtree=0 / crf=18.7000 / qcomp=0.65 / qpmin=0 / qpmax=69 / qpstep=4 / vbv_maxrate=50000 / vbv_bufsize=62500 / crf_max=0.0 / nal_hrd=none / filler=0 / ip_ratio=1.40 / pb_ratio=1.30 / aq=3:0.85 / zones=146411,153419,q=35
Default : Да
Forced : Нет

Аудио #1
Идентификатор : 4
Формат : AC-3
Формат/Информация : Audio Coding 3
Расширение режима : CM (complete main)
Параметр Endianness формата : Big
Идентификатор кодека : A_AC3
Продолжительность : 1 ч. 46 м.
Вид битрейта : Постоянный
Битрейт : 448 Кбит/сек
Каналы : 6 каналов
Расположение каналов : Front: L C R, Side: L R, LFE
Частота : 48,0 КГц
Частота кадров : 31,250 кадров/сек (1536 spf)
Метод сжатия : С потерями
Размер потока : 342 Мбайт (15%)
Язык : Russian
Default : Да
Forced : Нет

Аудио #2
Идентификатор : 5
Формат : AC-3
Формат/Информация : Audio Coding 3
Расширение режима : CM (complete main)
Параметр Endianness формата : Big
Идентификатор кодека : A_AC3
Продолжительность : 1 ч. 46 м.
Вид битрейта : Постоянный
Битрейт : 384 Кбит/сек
Каналы : 6 каналов
Расположение каналов : Front: L C R, Side: L R, LFE
Частота : 48,0 КГц
Частота кадров : 31,250 кадров/сек (1536 spf)
Метод сжатия : С потерями
Размер потока : 293 Мбайт (13%)
Язык : English
Default : Нет
Forced : Нет

Текст #1
Идентификатор : 1
Формат : UTF-8
Идентификатор кодека : S_TEXT/UTF8
Идентификатор кодека/Информация : UTF-8 Plain Text
Продолжительность : 1 ч. 41 м.
Битрейт : 28 бит/сек
Count of elements : 773
Размер потока : 21,2 Кбайт (0%)
Язык : English
Default : Нет
Forced : Нет

Текст #2
Идентификатор : 2
Формат : UTF-8
Идентификатор кодека : S_TEXT/UTF8
Идентификатор кодека/Информация : UTF-8 Plain Text
Продолжительность : 1 ч. 41 м.
Битрейт : 30 бит/сек
Count of elements : 835
Размер потока : 23,0 Кбайт (0%)
Заголовок : SDH
Язык : English
Default : Нет
Forced : Нет

Меню
00:00:00.000 : en:Chapter 1
00:07:42.586 : en:Chapter 2
00:16:46.171 : en:Chapter 3
00:24:08.945 : en:Chapter 4
00:33:19.998 : en:Chapter 5
00:42:11.110 : en:Chapter 6
00:51:07.438 : en:Chapter 7
00:59:55.717 : en:Chapter 8
01:08:09.626 : en:Chapter 9
01:18:35.961 : en:Chapter 10
01:26:59.087 : en:Chapter 11
01:35:50.453 : en:Chapter 12
скриншот   скриншот   скриншот   скриншот   скриншот   скриншот  
pb.wtf



Скачать Скайлайн 2 через торрент http://i6.imageban.ru/out/2017/09/18/2ff75c0c358795c5946784cc1680714d.png Скачать фильм Скайлайн 2 через торрент бесплантно в хорошем качестве Описание:В мире - хаос и паника. Небо закрыли нависающие над городами космические корабли, которые через огромные столпы света затягивают к ... 9.2 10 14
Info! Золотая раздача, скачанное не засчитывается.
Торрент: Зарегистрирован [2018-02-03 14:34] · скачан: 362 раз
Статус: √ проверено
Размер: 2.21 GB
Как cкачать? Как скачать Скайлайн 2 через торрент | UTorrent

% Раздел Тема Автор DL S | L
Фильмы [HD 720p, 1080p] (Хороший звук DUB, MVO) [ 6.07 GB ] Скайлайн 2 / Beyond Skyline [2017 BDRip 720p] DUB [] bober100 Скачать
1 | 0
Фильмы [HD 720p, 1080p] (Хороший звук DUB, MVO) [ 10.74 GB ] Скайлайн 2 / Beyond Skyline [2017 BDRip 1080p] DUB [] bober100 Скачать
1 | 0
Фильмы 2017 [DVDrip, WEB-DLRip, HDrip] (DUB, MVO) [ 1.47 GB ] Скайлайн 2 / Beyond Skyline [2017 BDRip-AVC] sokol_ok Скачать
2 | 0
Фильмы 2017 [DVDrip, WEB-DLRip, HDrip] (DUB, MVO) [ 1.46 GB ] Скайлайн 2 / Beyond Skyline [2017 BDRip] - [] Twi7ter Скачать
1 | 0
Фильмы 2017 [DVDrip, WEB-DLRip, HDrip] (DUB, MVO) [ 2.17 GB ] Скайлайн 2 / Beyond Skyline [2017 BDRip-AVC] - [] - ExKinoRay Enigma2010 Скачать
1 | 0
Фильмы (Blu-ray, BD-Remux, HDDVD) [ 18.06 GB ] Скайлайн 2 / Beyond Skyline [2017 Blu-ray 1080p] DUB [Rus Transfer] [] bober100 Скачать
1 | 0
Фильмы (Blu-ray, BD-Remux, HDDVD) [ 27.87 GB ] Скайлайн 2 / Beyond Skyline [2017 BD Remux 1080p] bober100 Скачать
1 | 0


Последний раз редактировалось: sokol_ok (2018-02-03 14:34), всего редактировалось 1 раз

28-11-2019 20:33  

Отключить всю рекламу на сайте

02-01-2018 09:12 Скайлайн 2 Скачать торрент  

не смотрите это pb.wtf



05-01-2018 22:01 Скайлайн 2 Скачать торрент  

мощный фильм, еле досмотрел. ладно хоть в конце неудачные дубли повеселилиpb.wtf



03-02-2018 14:34 Скайлайн 2 Скачать торрент  

Замена звукаpb.wtf



    Дорогой пользователь! Огромная просьба, поблагодарите релизера, оцените раздачу и оставьте свои комментарий, если Вы скачали Скайлайн 2 через торрент бесплатно! Внесите свою лепту в развитие PiratBit!
    Комментировать посты могут только пользователи прошедшие не сложную регистрацию
    Показать сообщения:    

    Скайлайн 2 через торрент
    Скачать бесплатно Скайлайн 2
    Скайлайн 2 скачать торрент
    Скайлайн 2 смотреть онлайн
    Cкачать фильм Скайлайн 2 бесплатно
    Скайлайн 2 скачать торрент в хорошем качестве
    Скайлайн 2 смотреть онлайн бесплатно в хорошем качестве


    Вы не можете начинать темы
    Вы не можете отвечать на сообщения
    Вы не можете редактировать свои сообщения
    Вы не можете удалять свои сообщения
    Вы не можете голосовать в опросах
    Вы не можете прикреплять файлы к сообщениям
    Вы можете скачивать файлы