2 сезон

iTunes

MVO

1

2 сезон

iTunes

iTunes

1 сезон

RePack

30

Новинка

ВАЖНО

ИГРА 18+

pack

RePack

MK11
pack

Легкие деньги

RePack

jed

RePack

fifa19

RePack

RDR2

RePack

NEED FOR SPEED™ PAYBACK

4 сезон

9 сезон

Бесстыжие 9 сезон

Все сериалы

все сериалы на PB.wtf

RePack

FAR CRY 5

Anonymous, добрый вечер, мы не успеваем собрать деньги на оплату серверов за декабрь и январь, помогите нам пожалуйста в это трудное время. В качестве благодарности мы отключим Вам всю рекламу на сайте (укажите свой ник в строку Ваше имя)!

×
  
Magnet ссылка

Бегущий по лезвию 2049 / Blade Runner 2049 (Дени Вильнёв) [2017, фантастика, триллер, WEB-DLRip-AVC] DUB [iTunes] pb.wtf

Бегущий по лезвию 2049 через торрент pb.wtf

Размер: 2.04 GB | Добавлен: 3 года назад | Торрент скачан:349 раз
Скачать  

01-01-2018 22:00 Бегущий по лезвию 2049 Скачать торрент  

Бегущий по лезвию 2049 / Blade Runner 2049Год выпуска: 2017
Страна: США , Великобритания , Канада
Жанр: фантастика, триллер
Продолжительность: 02:43:26
Перевод: Дубляж iTunes
Субтитры: Русские (вшитые, не отключаемые)

Режиссер: Дени Вильнёв

rating

В ролях:

Райан Гослинг, Харрисон Форд, Сильвия Хукс, Робин Райт, Вильма Сечи, Ана де Армас, Вуд Харрис, Дэйв Батиста, Давид Дастмалчян, Томас Лемарку, Марк Арнольд

Описание:

В недалеком будущем мир населен людьми и репликантами, созданными выполнять самую тяжелую работу. Работа офицера полиции Кей — держать репликантов под контролем в условиях нарастающего напряжения… Пока он случайно не становится обладателем секретной информации. Желая найти ключ к разгадке, Кей решает разыскать Рика Декарда, бывшего офицера специального подразделения полиции Лос-Анджелеса, который бесследно исчез много лет назад..

Качество: WEB-DLRip-AVC
Формат: MKV
Видео кодек: H.264
Аудио кодек: AC3

Видео: 1024x424 (2.40:1), 24 fps, MPEG-4 AVC ~ 1 400 kbps (0.134 bit/pixel)
Аудио#1: AC3, 48.0 KHz, 6 ch, 384 kbps
скриншот  

General
Unique ID : 176794304628903752783382035434493439612 (0x85015832FFE72EAD908635BB1473EE7C)
Complete name : X:x264Blade Runner 2049.[2017].WEB-DLRip-AVC.[Kaztorrents].mkv
Format : Matroska
Format version : Version 4 / Version 2
File size : 2.04 GiB
Duration : 2 h 43 min
Overall bit rate : 1 786 kb/s
Encoded date : UTC 2018-01-01 21:06:56
Writing application : mkvmerge v11.0.0 ('Alive') 64bit
Writing library : libebml v1.3.4 + libmatroska v1.4.5

Video
ID : 1
Format : AVC
Format/Info : Advanced Video Codec
Format profile : High@L4
Format settings, CABAC : Yes
Format settings, ReFrames : 11 frames
Codec ID : V_MPEG4/ISO/AVC
Duration : 2 h 43 min
Bit rate : 1 400 kb/s
Width : 1 024 pixels
Height : 424 pixels
Display aspect ratio : 2.40:1
Frame rate mode : Constant
Frame rate : 23.976 (24000/1001) FPS
Color space : YUV
Chroma subsampling : 4:2:0
Bit depth : 8 bits
Scan type : Progressive
Bits/(Pixel*Frame) : 0.134
Stream size : 1.60 GiB (78%)
Writing library : x264 core 146 r2538 121396c
Encoding settings : cabac=1 / ref=11 / deblock=1:-3:-3 / analyse=0x3:0x113 / me=umh / subme=11 / psy=1 / psy_rd=1.00:0.00 / mixed_ref=1 / me_range=48 / chroma_me=1 / trellis=2 / 8x8dct=1 / cqm=0 / deadzone=21,11 / fast_pskip=0 / chroma_qp_offset=-2 / threads=6 / lookahead_threads=1 / sliced_threads=0 / nr=0 / decimate=0 / interlaced=0 / bluray_compat=0 / constrained_intra=0 / bframes=11 / b_pyramid=2 / b_adapt=2 / b_bias=0 / direct=3 / weightb=1 / open_gop=0 / weightp=2 / keyint=240 / keyint_min=23 / scenecut=40 / intra_refresh=0 / rc_lookahead=40 / rc=2pass / mbtree=0 / bitrate=1400 / ratetol=1.0 / qcomp=0.60 / qpmin=0 / qpmax=69 / qpstep=4 / cplxblur=20.0 / qblur=0.5 / vbv_maxrate=50000 / vbv_bufsize=62500 / nal_hrd=none / filler=0 / ip_ratio=1.40 / pb_ratio=1.30 / aq=1:1.10
Language : Russian
Default : Yes
Forced : No

Audio
ID : 2
Format : AC-3
Format/Info : Audio Coding 3
Mode extension : CM (complete main)
Format settings, Endianness : Big
Codec ID : A_AC3
Duration : 2 h 43 min
Bit rate mode : Constant
Bit rate : 384 kb/s
Channel(s) : 6 channels
Channel positions : Front: L C R, Side: L R, LFE
Sampling rate : 48.0 kHz
Frame rate : 31.250 FPS (1536 spf)
Bit depth : 16 bits
Compression mode : Lossy
Stream size : 449 MiB (22%)
Default : Yes
Forced : No

pb.wtf



Скачать Бегущий по лезвию 2049 через торрент http://i92.fastpic.ru/big/2017/1009/73/07e95f6671f5ea2ac71678ec62afe373.png Скачать фильм Бегущий по лезвию 2049 через торрент бесплантно в хорошем качестве Описание: В недалеком будущем мир населен людьми и репликантами, созданными выполнять самую тяжелую работу. Работа офицера полиции Кей — ... 9.8 10 12
Info! Золотая раздача, скачанное не засчитывается.
Торрент: Зарегистрирован [2018-01-01 22:00] · скачан: 349 раз
Статус: √ проверено
Размер: 2.04 GB
Как cкачать? Как скачать Бегущий по лезвию 2049 через торрент | UTorrent

% Раздел Тема Автор DL S | L
Ultra HD (UHD: 2K, 4K, 8K) — видео сверхвысокой чёткости [ 76.33 GB ] Бегущий по лезвию 2049 / Blade Runner 2049 [2017 научная UHD BDRemux 2160p] DUB [] + 5xAVO + VO sheker187 Скачать
1 | 0
Ultra HD (UHD: 2K, 4K, 8K) — видео сверхвысокой чёткости [ 27.51 GB ] Бегущий по лезвию 2049 / Blade Runner 2049 [2017 научная UHD BDRip 2160p] [SDR] DUB + AVO [Д.Есарев] sheker187 Скачать
4 | 1
Фильмы с авторской озвучкой [ 3.61 GB ] Бегущий по лезвию 2049 / Ликвидатор 2049 / Blade Runner 2049 [2017 BDRip] 4x[AVO] killermax2013 Скачать
1 | 0
Фильмы [HD 720p, 1080p] (Хороший звук DUB, MVO) [ 8.28 GB ] Бегущий по лезвию 2049 / Blade Runner 2049 [2017 BDRip-HEVC 1080p] DUB [] WorldSM Скачать
1 | 0
Фильмы (HD 720p, 1080p) (48-60 fps) [ 5.25 GB ] Бегущий по лезвию 2049 / Blade Runner 2049 [2017 BDRip 720p 60 fps от еnvy / NNNB] NOR-Transfer | DUB еnvy Скачать
48 | 0
Фильмы 2017 [DVDrip, WEB-DLRip, HDrip] (DUB, MVO) [ 1.46 GB ] Бегущий по лезвию 2049 / Blade Runner 2049 [2017 BDRip] - [] Twi7ter Скачать
2 | 0
Ultra HD (UHD: 2K, 4K, 8K) — видео сверхвысокой чёткости [ 81.15 GB ] Бегущий по лезвию 2049 / Blade Runner 2049 [2017 UHD BDRemux 2160p] 2xAVO [Д.Есарев Ю.Живов] +DUB +DUB [] bober100 Скачать
2 | 0

28-11-2019 20:33  

Отключить всю рекламу на сайте

    Дорогой пользователь! Огромная просьба, поблагодарите релизера, оцените раздачу и оставьте свои комментарий, если Вы скачали Бегущий по лезвию 2049 через торрент бесплатно! Внесите свою лепту в развитие PiratBit!
    Комментировать посты могут только пользователи прошедшие не сложную регистрацию
    Показать сообщения:    

    Бегущий по лезвию 2049 через торрент
    Скачать бесплатно Бегущий по лезвию 2049
    Бегущий по лезвию 2049 скачать торрент
    Бегущий по лезвию 2049 смотреть онлайн
    Cкачать фильм Бегущий по лезвию 2049 бесплатно
    Бегущий по лезвию 2049 скачать торрент в хорошем качестве
    Бегущий по лезвию 2049 смотреть онлайн бесплатно в хорошем качестве


    Вы не можете начинать темы
    Вы не можете отвечать на сообщения
    Вы не можете редактировать свои сообщения
    Вы не можете удалять свои сообщения
    Вы не можете голосовать в опросах
    Вы не можете прикреплять файлы к сообщениям
    Вы можете скачивать файлы