Ссылка на приватное зеркало нашего сайта всего за 1$. Внимание количество ограничено!!!

2 сезон

iTunes

1 сезон

1

iTunes

iTunes

iTunes

1 сезон

RePack

30

ИГРА 18+

pack

ВАЖНО

!!Акция!!

Alien_RageХит недели

RePack

MK11
pack

Забери бонус

RePack

jed

!!Акция!!

Alien_Rage

RePack

fifa19

RePack

Assassins Creed: Odyssey

RePack

NEED FOR SPEED™ PAYBACK

4 сезон

9 сезон

Бесстыжие 9 сезон

Все сериалы

все сериалы на PB.wtf

RePack

FAR CRY 5
  

Иностранец / The Foreigner (Мартин Кэмпбелл) [2017 г., боевик, триллер, BDRip-AVC-HEVC / 60 FPS, Dub (iTunes)] pb.wtf

Иностранец через торрент pb.wtf

Раздают: 1 [ 0 KB/s ]
Размер: 1.94 GB | Добавлен: 2 года 9 мес. назад | Торрент скачан:599 раз
Скачать  

02-01-2018 05:29 Иностранец Скачать торрент  

Иностранец / The Foreigner
Год выпуска: 2017
Страна: Великобритания, Китай, США
Жанр: боевик, триллер
Продолжительность: 01:53:52
Перевод: Дубляж iTunes
Субтитры: Английские (полные)

Режиссер: Мартин Кэмпбелл

rating

В ролях: Кэти Льюнг, Джеки Чан, Пирс Броснан, Руфус Джонс, Марк Тэнди, Джон Кронин, Каолан Бирн, Донна Бернард, Аарон Монахэн

Описание: Бывший спецагент, ветеран вьетнамской войны Цюань давно сложил оружие и завёл мирную жизнь. Но после того, как в теракте прямо на глазах погибает его дочь-подросток, видя, что власти не спешат разыскивать преступников, Цюань сам начинает поиск убийцы. Он пойдет на всё, чтобы совершить праведное возмездие…

Качество: BDRip-AVC-HEVC 10bit / 60 FPS by Tiberiumsun69
Формат: MKV
Видео кодек: H.265
Аудио кодек: AC3
Видео: AVC, 1070x448 (2.40:1), 2000 kbps, 59.94 fps, 0.072 bpp
Аудио#1: AC3, 6 ch, 48 kHz, 384 Kbps, 16 bit - DUB (itunes)


Доп.ИнформацияДанный релиз сделан с внедрением технологии HEVC (H.265).Видео 10 битное и не каждое устройство способно его воспроизвести.Однако данное внедрение позволило в разы уменьшить конечный размер видео и сохранить оптимальное качество.При 60 кадрах в секунду.
General
Unique ID : 250689218120045576221088521631090119713 (0xBC98FCB890B2DD57A6E74B974E649421)
Complete name : D:\Торренты\Иностранец BDRip-AVC-HEVC 60fps.mkv
Format : Matroska
Format version : Version 4 / Version 2
File size : 1.94 GiB
Duration : 1 h 53 min
Overall bit rate : 2 443 kb/s
Movie name : The Foreigner (2017) by Tiberiumsun69
Encoded date : UTC 2018-01-01 23:18:43
Writing application : mkvmerge v18.0.0 ('Apricity') 64-bit
Writing library : libebml v1.3.5 + libmatroska v1.4.8

Video
ID : 1
Format : HEVC
Format/Info : High Efficiency Video Coding
Format profile : Main 10@L3.1@Main
Codec ID : V_MPEGH/ISO/HEVC
Duration : 1 h 53 min
Bit rate : 2 056 kb/s
Width : 1 070 pixels
Height : 448 pixels
Display aspect ratio : 2.40:1
Frame rate mode : Constant
Frame rate : 59.940 (60000/1001) FPS
Color space : YUV
Chroma subsampling : 4:2:0
Bit depth : 10 bits
Bits/(Pixel*Frame) : 0.072
Stream size : 1.63 GiB (84%)
Language : English
Default : Yes
Forced : No
Color range : Full
Color primaries : BT.601 NTSC
Transfer characteristics : BT.601
Matrix coefficients : BT.601

Audio
ID : 2
Format : AC-3
Format/Info : Audio Coding 3
Codec ID : A_AC3
Duration : 1 h 53 min
Bit rate mode : Constant
Bit rate : 384 kb/s
Channel(s) : 6 channels
Channel positions : Front: L C R, Side: L R, LFE
Sampling rate : 48.0 kHz
Frame rate : 31.250 FPS (1536 SPF)
Bit depth : 16 bits
Compression mode : Lossy
Stream size : 313 MiB (16%)
Language : Russian
Service kind : Complete Main
Default : Yes
Forced : No

Text
ID : 3
Format : UTF-8
Codec ID : S_TEXT/UTF8
Codec ID/Info : UTF-8 Plain Text
Duration : 1 h 44 min
Bit rate : 52 b/s
Count of elements : 1212
Stream size : 40.3 KiB (0%)
Language : English
Default : No
Forced : No

Menu
00:00:00.000 : en:00:00:00.000
00:08:19.541 : en:00:08:19.541
00:15:49.574 : en:00:15:49.574
00:21:47.765 : en:00:21:47.765
00:27:04.164 : en:00:27:04.164
00:32:09.511 : en:00:32:09.511
00:35:24.164 : en:00:35:24.164
00:38:30.934 : en:00:38:30.934
00:43:50.169 : en:00:43:50.169
00:47:38.189 : en:00:47:38.189
00:54:10.497 : en:00:54:10.497
01:01:42.324 : en:01:01:42.324
01:08:07.333 : en:01:08:07.333
01:14:14.033 : en:01:14:14.033
01:18:42.927 : en:01:18:42.927
01:23:26.877 : en:01:23:26.877
01:29:18.812 : en:01:29:18.812
01:38:55.012 : en:01:38:55.012
01:43:45.928 : en:01:43:45.928
01:47:09.298 : en:01:47:09.298

Просьба к переливающим на другие сайты, в оформлении указывайте пожалуйста авторство группы Авторская группа в ВК
pb.wtf



Скачать Иностранец через торрент http://img12.lostpic.net/2017/12/28/71683135e439e29938bf6703f147eee0.jpg Скачать фильм Иностранец через торрент бесплантно в хорошем качестве Описание: Бывший спецагент, ветеран вьетнамской войны Цюань давно сложил оружие и завёл мирную жизнь. Но после того, как в теракте прямо на ... 9.9 10 19
Info! Золотая раздача, скачанное не засчитывается.
Торрент: Зарегистрирован [2018-01-02 05:29] · скачан: 599 раз
Статус: √ проверено
Размер: 1.94 GB
Как cкачать? Как скачать Иностранец через торрент | qTorrent

% Раздел Тема Автор DL S | L
Фильмы [HD 720p, 1080p] (Хороший звук DUB, MVO) [ 8.71 GB ] Иностранец / The Foreigner [2017 BDRip 1080p] [GER Transfer] DUB + AVO - KORSAR kisa1980 Скачать
2 | 0
Фильмы (Blu-ray, BD-Remux, HDDVD) [ 31.57 GB ] Иностранец / The Foreigner [2017 BD Remux 1080p] DUB [] bober100 Скачать
2 | 0
Фильмы 2017 [DVDrip, WEB-DLRip, HDrip] (DUB, MVO) [ 746 MB ] Иностранец / The Foreigner [2017 BDRip-AVC] sokol_ok Скачать
2 | 0
Фильмы 2017 [DVDrip, WEB-DLRip, HDrip] (DUB, MVO) [ 2.9 GB ] Иностранец / The Foreigner [2017 BDRip-AVC] + AVO [Карповский Живов] sokol_ok Скачать
1 | 0
Фильмы 2017 [DVDrip, WEB-DLRip, HDrip] (DUB, MVO) [ 1.34 GB ] Иностранец / The Foreigner [2017 BDRip-AVC] sokol_ok Скачать
2 | 0
Фильмы 2017 [DVDrip, WEB-DLRip, HDrip] (DUB, MVO) [ 1.46 GB ] Иностранец / The Foreigner [2017 BDRip-AVC] DUB [] bober100 Скачать
2 | 0
Фильмы [HD 720p, 1080p] (Хороший звук DUB, MVO) [ 7.24 GB ] Иностранец / The Foreigner [2017 BDRip 720p] DUB [] bober100 Скачать
1 | 0


Последний раз редактировалось: Tiberiumsun69 (2018-02-09 08:45), всего редактировалось 3 раз(а)

28-11-2019 20:33  

Отключить всю рекламу на сайте

02-01-2018 05:48 Иностранец Скачать торрент  

Всем день добрый.Приятного просмотра.

P.S. Обратите пожалуйста внимание на конечный размер и качество видео.pb.wtf



02-01-2018 10:18 Иностранец Скачать торрент  

Сэмпл не показывает в LL , в VLC вроде показываетpb.wtf





Последний раз редактировалось: kedoffpetya (2018-01-02 10:22), всего редактировалось 1 раз

02-01-2018 10:22 Иностранец Скачать торрент  

kedoffpetya, Скачайте пожалуйста его и проверьте.Ибо хостинг на который я заливаю сэмплы пока не может воспроизводить онлайн у себя 10 битное видео.

P.S. Имейте ввиду что 10 битное видео не каждое устройство способно воспроизводить.Пробуйте разные кодеки (madVR и LAVideo) в своеи медиаплеере.pb.wtf



02-01-2018 10:27 Иностранец Скачать торрент  

уже проверил - качество супер - но в Light Alloy не показывает . Я на другом плеере смотреть буду- VLC ))pb.wtf



02-01-2018 10:57 Иностранец Скачать торрент  

kedoffpetya писал(а):

уже проверил - качество супер - но в Light Alloy не показывает . Я на другом плеере смотреть буду- VLC ))

Ок.Кстати на смартфоне (Xiaomi mi max 32gb) мой MX player pro не справился.ВИдос шел но с подтормаживанием. А вот VLC с ним справился на смартфоне.Я планирую Властелина колец переделать.Заодно сравнить покадрово разницу в качестве.pb.wtf



03-01-2018 11:17 Иностранец Скачать торрент  

Достойный фильм, всем советуюpb.wtf



    Дорогой пользователь! Огромная просьба, поблагодарите релизера, оцените раздачу и оставьте свои комментарий, если Вы скачали Иностранец через торрент бесплатно! Внесите свою лепту в развитие PiratBit!
    Комментировать посты могут только пользователи прошедшие не сложную регистрацию
    Показать сообщения:    

    Иностранец через торрент
    Скачать бесплатно Иностранец
    Иностранец скачать торрент
    Иностранец смотреть онлайн
    Cкачать фильм Иностранец бесплатно
    Иностранец скачать торрент в хорошем качестве
    Иностранец смотреть онлайн бесплатно в хорошем качестве


    Вы не можете начинать темы
    Вы не можете отвечать на сообщения
    Вы не можете редактировать свои сообщения
    Вы не можете удалять свои сообщения
    Вы не можете голосовать в опросах
    Вы не можете прикреплять файлы к сообщениям
    Вы можете скачивать файлы