2 сезон

iTunes

1 сезон

1

iTunes

iTunes

iTunes

1 сезон

RePack

30

ИГРА 18+

pack

ВАЖНО

!!Акция!!

Alien_RageХит недели

RePack

MK11
pack

Забери бонус

RePack

jed

!!Акция!!

Alien_Rage

RePack

fifa19

RePack

Assassins Creed: Odyssey

RePack

NEED FOR SPEED™ PAYBACK

4 сезон

9 сезон

Бесстыжие 9 сезон

Все сериалы

все сериалы на PB.wtf

RePack

FAR CRY 5
  

Новый парень моей мамы / My Mom's New Boyfriend (Джордж Галло) [2008, триллер, мелодрама, комедия, криминал, BDRip 1080p by msltel] DUB, DVO pb.wtf

Новый парень моей мамы через торрент pb.wtf

Размер: 9.98 GB | Добавлен: 2 года 9 мес. назад | Торрент скачан:72 раза
Скачать  

02-01-2018 06:08 Новый парень моей мамы Скачать торрент  

Название: Новый парень моей мамы
Оригинальное название: My Mom's New Boyfriend
Год выпуска: 2008
Страна: Германия, США
Жанр: мелодрама, комедия, криминал, триллер
Продолжительность: 01:37:01
Перевод: дублированный, профессиональный двухголосый

Режиссер: Джордж Галло
В ролях: Антонио Бандерас, Мег Райан, Колин Хэнкс, Сэлма Блэр, Тревор Морган, Джон Вальдетеро, Эли Данкер, Том Адамс, Кит Дэвид, Энрико Колантони, Марко Ст. Джон, Аки Авни, Марк Миде, Тарри Маркелл, Джефф Фрид, Гэри Граббс, Рокко Савастано, Джули Лотт, Джейк Хьёртен, Джейк Хьертен, Сара Лонг

О фильме: Молодой агент ФБР Генри, выполняя очередное задание, покидает родной дом на три года, оставляя в гордом одиночестве свою полную одинокую мамашу Марту. В следующий раз, когда он её увидит, она уже предстанет перед ним в образе прекрасной разбитной блондинки Марты, которая намерена в последние годы уходящей молодости взять от жизни всё, и в своих стремлениях, не зная тормозов, заводит романы направо и налево, не гнушаясь ни лысыми итальянскими поварами, ни безусыми юнцами на мотоциклах. От всего происходящего у Генри идёт кругом голова, но окончательно почва уйдёт у него из-под ног, когда Марта повстречает некоего Томми, а Генри на летучке в ФБР прикажут следить за новым ухажёром, ввиду широкой известности последнего в Интерполе...



Качество: BDRip 1080p
Формат: MKV
Видео: MPEG-4 AVC, 12.4 Мбит/с, 1920x798
Аудио 1: русский, AC3, 448 kbps, 6 ch [дублированный]
Аудио 2: русский, AC3, 448 kbps, 6 ch [профессиональный двухголосый]
Аудио 3: английский, DTS, 1509 kbps, 6 ch, 48 kHz [оригинал]
Субтитры 1: русские
Субтитры 2: английские
Неименованные главы/чаптеры.
Общее
Уникальный идентификатор : 240351169156622993454778279453473824356 (0xB4D1F38DF2FBC7A1A9521FFE4C42DE64)
Полное имя : D:\Video\Новый парень моей мамы.2007.BDRip.1080p by msltel.mkv
Формат : Matroska
Версия формата : Version 4 / Version 2
Размер файла : 9,98 Гбайт
Продолжительность : 1 ч. 37 м.
Общий поток : 14,7 Мбит/сек
Название фильма : Rip by msltel
Дата кодирования : UTC 2018-01-01 12:20:30
Программа кодирования : mkvmerge v8.2.0 ('World of Adventure') 64bit
Библиотека кодирования : libebml v1.3.1 + libmatroska v1.4.2

Видео
Идентификатор : 1
Формат : AVC
Формат/Информация : Advanced Video Codec
Профиль формата : High@L4.1
Настройки формата : CABAC / 4 Ref Frames
Параметр CABAC формата : Да
Параметр RefFrames формата : 4 кадра
Идентификатор кодека : V_MPEG4/ISO/AVC
Продолжительность : 1 ч. 36 м.
Битрейт : 12,4 Мбит/сек
Ширина : 1920 пикселей
Высота : 798 пикселей
Соотношение сторон : 2,40:1
Режим частоты кадров : Постоянный
Частота кадров : 24,000 кадра/сек
Цветовое пространство : YUV
Субдискретизация насыщенности : 4:2:0
Битовая глубина : 8 бит
Тип развёртки : Прогрессивная
Бит/(Пиксели*Кадры) : 0.336
Размер потока : 8,37 Гбайт (84%)
Библиотека кодирования : x264 core 146 r2538 121396c
Настройки программы : cabac=1 / ref=4 / deblock=1:-3:-2 / analyse=0x3:0x113 / me=umh / subme=11 / psy=1 / psy_rd=1.00:0.15 / mixed_ref=1 / me_range=32 / chroma_me=1 / trellis=2 / 8x8dct=1 / cqm=0 / deadzone=21,11 / fast_pskip=0 / chroma_qp_offset=-3 / threads=6 / lookahead_threads=1 / sliced_threads=0 / nr=0 / decimate=1 / interlaced=0 / bluray_compat=0 / constrained_intra=0 / bframes=6 / b_pyramid=2 / b_adapt=2 / b_bias=0 / direct=1 / weightb=1 / open_gop=0 / weightp=2 / keyint=230 / keyint_min=23 / scenecut=40 / intra_refresh=0 / rc_lookahead=40 / rc=crf / mbtree=0 / crf=18.2 / qcomp=0.60 / qpmin=0 / qpmax=69 / qpstep=4 / vbv_maxrate=62500 / vbv_bufsize=78125 / crf_max=0.0 / nal_hrd=none / filler=0 / ip_ratio=1.40 / pb_ratio=1.30 / aq=1:1.00
Язык : English
Default : Да
Forced : Нет

Аудио #1
Идентификатор : 2
Формат : AC-3
Формат/Информация : Audio Coding 3
Идентификатор кодека : A_AC3
Продолжительность : 1 ч. 36 м.
Вид битрейта : Постоянный
Битрейт : 448 Кбит/сек
Каналы : 6 каналов
Расположение каналов : Front: L C R, Side: L R, LFE
Частота : 48,0 КГц
Частота кадров : 31,250 кадров/сек (1536 SPF)
Битовая глубина : 16 бит
Метод сжатия : С потерями
Размер потока : 311 Мбайт (3%)
Заголовок : DUB
Язык : Russian
ServiceKind/String : Complete Main
Default : Да
Forced : Нет

Аудио #2
Идентификатор : 3
Формат : AC-3
Формат/Информация : Audio Coding 3
Идентификатор кодека : A_AC3
Продолжительность : 1 ч. 31 м.
Вид битрейта : Постоянный
Битрейт : 448 Кбит/сек
Каналы : 6 каналов
Расположение каналов : Front: L C R, Side: L R, LFE
Частота : 48,0 КГц
Частота кадров : 31,250 кадров/сек (1536 SPF)
Битовая глубина : 16 бит
Метод сжатия : С потерями
Размер потока : 293 Мбайт (3%)
Заголовок : DVO
Язык : Russian
ServiceKind/String : Complete Main
Default : Нет
Forced : Нет

Аудио #3
Идентификатор : 4
Формат : DTS
Формат/Информация : Digital Theater Systems
Идентификатор кодека : A_DTS
Продолжительность : 1 ч. 37 м.
Вид битрейта : Постоянный
Битрейт : 1509 Кбит/сек
Каналы : 6 каналов
Расположение каналов : Front: L C R, Side: L R, LFE
Частота : 48,0 КГц
Частота кадров : 93,750 кадра/сек (512 SPF)
Битовая глубина : 16 бит
Метод сжатия : С потерями
Размер потока : 1,02 Гбайт (10%)
Заголовок : original
Язык : English
Default : Нет
Forced : Нет

Текст #1
Идентификатор : 5
Формат : UTF-8
Идентификатор кодека : S_TEXT/UTF8
Идентификатор кодека/Информация : UTF-8 Plain Text
Продолжительность : 1 ч. 36 м.
Битрейт : 90 бит/сек
ElementCount : 1336
Размер потока : 64,1 Кбайт (0%)
Заголовок : русские
Язык : Russian
Default : Нет
Forced : Нет

Текст #2
Идентификатор : 6
Формат : UTF-8
Идентификатор кодека : S_TEXT/UTF8
Идентификатор кодека/Информация : UTF-8 Plain Text
Продолжительность : 1 ч. 30 м.
Битрейт : 80 бит/сек
ElementCount : 1435
Размер потока : 52,8 Кбайт (0%)
Заголовок : английские
Язык : English
Default : Нет
Forced : Нет

Меню
00:00:00.000 : :Chapter 01
00:03:45.707 : :Chapter 02
00:06:23.125 : :Chapter 03
00:09:39.750 : :Chapter 04
00:16:01.291 : :Chapter 05
00:20:25.708 : :Chapter 06
00:27:09.208 : :Chapter 07
00:32:08.125 : :Chapter 08
00:41:41.708 : :Chapter 09
00:45:01.666 : :Chapter 10
00:52:13.000 : :Chapter 11
00:59:43.291 : :Chapter 12
01:04:38.375 : :Chapter 13
01:09:24.791 : :Chapter 14
01:20:58.375 : :Chapter 15
01:30:33.625 : :Chapter 16
01:36:52.375 : :Chapter 17
pb.wtf



Скачать Новый парень моей мамы через торрент https://d.radikal.ru/d33/1801/cd/39c92ac9a840.jpg Скачать фильм Новый парень моей мамы через торрент бесплантно в хорошем качестве О фильме: Молодой агент ФБР Генри, выполняя очередное задание, покидает родной дом на три года, оставляя в гордом одиночестве свою полную ... 8.5 10 4
Info! Золотая раздача, скачанное не засчитывается.
Торрент: Зарегистрирован [2018-01-02 06:08] · скачан: 72 раз
Статус: √ проверено
Размер: 9.98 GB
Как cкачать? Как скачать Новый парень моей мамы через торрент | qTorrent

28-11-2019 20:33  

Отключить всю рекламу на сайте

    Дорогой пользователь! Огромная просьба, поблагодарите релизера, оцените раздачу и оставьте свои комментарий, если Вы скачали Новый парень моей мамы через торрент бесплатно! Внесите свою лепту в развитие PiratBit!
    Комментировать посты могут только пользователи прошедшие не сложную регистрацию
    Показать сообщения:    

    Новый парень моей мамы через торрент
    Скачать бесплатно Новый парень моей мамы
    Новый парень моей мамы скачать торрент
    Новый парень моей мамы смотреть онлайн
    Cкачать фильм Новый парень моей мамы бесплатно
    Новый парень моей мамы скачать торрент в хорошем качестве
    Новый парень моей мамы смотреть онлайн бесплатно в хорошем качестве


    Вы не можете начинать темы
    Вы не можете отвечать на сообщения
    Вы не можете редактировать свои сообщения
    Вы не можете удалять свои сообщения
    Вы не можете голосовать в опросах
    Вы не можете прикреплять файлы к сообщениям
    Вы можете скачивать файлы