новый адрес
Мега распродажа FORZA HORIZON 4 ULTIMATE+ВСЕ DLC+ОНЛАЙН всего за 499р. 349 руб. (супер цена). Внимание количество ограничено!!!

iTunes

1+1

iTunes

мы

iTunes

1

iTunes

Чернобыль

iTunes

Ральф против интернета

Лицензия

ПШазам

Лицензия

Игра престолов

Лицензия

30
pack

ВАЖНО

!!Акция!!

Alien_RageХит недели

RePack

Resident Evil 21

ИГРА 18+

pack

RePack

Metro:Exodus

!!Акция!!

Alien_Rage

RePack

fifa19

RePack

Assassins Creed: Odyssey

RePack

NEED FOR SPEED™ PAYBACK

3 сезон

9 сезон

Бесстыжие 9 сезон

Все сериалы

все сериалы на PB.wtf

RePack

FAR CRY 5
Ребята, катастрофически не хватает 1900р. для оплаты серверов за Октябрь (всвязи с блокировками трафик упал в 3 раза), 1-2р., выручайте.
  

Удача Логана / Logan Lucky (Стивен Содерберг) [2017, комедия, криминал, UHD BDRemux 2160p] DUB [Лицензия] +3xAVO pb.wtf

Удача Логана через торрент pb.wtf

Размер: 64.54 GB | Добавлен: 1 мес. 5 д. назад | Торрент скачан:1 раз
Скачать  

02-01-2018 16:35 Удача Логана Скачать торрент  

Удача Логана / Logan Lucky
Год выпуска: 2017
Страна: США
Жанр: комедия, криминал
Продолжительность: 01:59:03
Перевод: Дублированный | Лицензия, Авторский
Субтитры: русские (forced, Blu-Ray, FOCS)английские (full, SDH)

Режиссер: Стивен Содерберг

rating

В ролях:

Ченнинг Татум (Jimmy Logan), Адам Драйвер (Clyde Logan), Дэниэл Крэйг (Joe Bang), Райли Кио (Mellie Logan), Кэти Холмс (Bobbie Jo Chapman), Джек Куэйд (Fish Bang), Брин Глисон (Sam Bang), Сет МакФарлейн (Max Chilblain), Себастиан Стэн (Dayton White), Хилари Суэнк (Special Agent Sarah Grayson), Фаррах Маккензи (Sadie Logan), Джим О’Хейр (Cal)
Описание: Уволили с работы? Подготовь самое дерзкое ограбление в истории! Джимми Логан молниеносно подбирает команду «специалистов», способных на такую аферу, и надеется выйти сухим из воды. Будь как Логан!

Качество: UHD BDRemux 2160p
Формат: MKV

Видео: MPEG-H HEVC Video / 61181 kbps / 3840x2160 / 23.976 fps / 16:9 / Main 10 Profile 5.1 High / 4:2:0 / 10 bits / HDR / BT.2020 /
Аудио 1: Russian DTS-HD Master Audio / 5.1 / 48 kHz / 3315 kbps / 24-bit (DTS Core: 5.1 / 48 kHz / 1509 kbps / 24-bit) |Dub, Blu-Ray|
Аудио 2: Russian DTS-HD Master Audio / 5.1 / 48 kHz / 3270 kbps / 24-bit (DTS Core: 5.1 / 48 kHz / 1509 kbps / 24-bit) |А. Гаврилов|
Аудио 3: Russian DTS-HD Master Audio / 5.1 / 48 kHz / 3271 kbps / 24-bit (DTS Core: 5.1 / 48 kHz / 1509 kbps / 24-bit) |В. Дохалов|
Аудио 4: Russian DTS-HD Master Audio / 5.1 / 48 kHz / 3304 kbps / 24-bit (DTS Core: 5.1 / 48 kHz / 1509 kbps / 24-bit) |В. Котов|
Аудио 5: English DTS-HD Master Audio / 5.1 / 48 kHz / 3267 kbps / 24-bit (DTS Core: 5.1 / 48 kHz / 1509 kbps / 24-bit) |original|
скриншот  скриншот  скриншот  скриншот  скриншот  

Общее
Уникальный идентификатор : 192553304702147279568314602830702923778 (0x90DC6AE40297F887607E411A3AA15002)
Полное имя : H:\UHD\Удача Логана.2017.UHD.Blu-Ray.Remux.2160p.mkv
Формат : Matroska
Версия формата : Version 4
Размер файла : 64,5 Гбайт
Продолжительность : 1 ч. 59 м.
Режим общего битрейта : Переменный
Общий поток : 77,6 Мбит/сек
Дата кодирования : UTC 2019-10-10 16:37:05
Программа кодирования : mkvmerge v38.0.0 ('The Silent Type') 64-bit
Библиотека кодирования : libebml v1.3.9 + libmatroska v1.5.2
Attachments : poster.jpg

Видео
Идентификатор : 1
Формат : HEVC
Формат/Информация : High Efficiency Video Coding
Профиль формата : Main 10@L5.1@High
HDR_Format/String : SMPTE ST 2086, HDR10 compatible
Идентификатор кодека : V_MPEGH/ISO/HEVC
Продолжительность : 1 ч. 59 м.
Битрейт : 61,2 Мбит/сек
Ширина : 3840 пикселей
Высота : 2160 пикселей
Соотношение сторон : 16:9
Режим частоты кадров : Постоянный
Частота кадров : 23,976 (24000/1001) кадра/сек
Цветовое пространство : YUV
Субдискретизация насыщенности : 4:2:0 (Type 2)
Битовая глубина : 10 бит
Бит/(Пиксели*Кадры) : 0.308
Размер потока : 50,9 Гбайт (79%)
Библиотека кодирования : ATEME Titan File 3.8.3 (4.8.3.0)
Default : Да
Forced : Нет
Цветовой диапазон : Limited
Основные цвета : BT.2020
Характеристики трансфера : PQ
Коэффициенты матрицы : BT.2020 non-constant
MasteringDisplay_ColorPrimaries : Display P3
MasteringDisplay_Luminance : min: 0.0050 cd/m2, max: 1000 cd/m2
MaxCLL : 847 cd/m2
MaxFALL : 476 cd/m2

Аудио #1
Идентификатор : 2
Формат : DTS XLL
Формат/Информация : Digital Theater Systems
Коммерческое название : DTS-HD Master Audio
Идентификатор кодека : A_DTS
Продолжительность : 1 ч. 59 м.
Вид битрейта : Переменный
Битрейт : 3315 Кбит/сек
Каналы : 6 каналов
ChannelLayout : C L R Ls Rs LFE
Частота : 48,0 КГц
Частота кадров : 93,750 кадра/сек (512 SPF)
Битовая глубина : 24 бит
Метод сжатия : Без потерь
Размер потока : 2,76 Гбайт (4%)
Заголовок : Dub, Blu-Ray
Язык : Russian
Default : Да
Forced : Нет

Аудио #2
Идентификатор : 3
Формат : DTS XLL
Формат/Информация : Digital Theater Systems
Коммерческое название : DTS-HD Master Audio
Идентификатор кодека : A_DTS
Продолжительность : 1 ч. 59 м.
Вид битрейта : Переменный
Битрейт : 3270 Кбит/сек
Каналы : 6 каналов
ChannelLayout : C L R Ls Rs LFE
Частота : 48,0 КГц
Частота кадров : 93,750 кадра/сек (512 SPF)
Битовая глубина : 24 бит
Метод сжатия : Без потерь
Размер потока : 2,72 Гбайт (4%)
Заголовок : А. Гаврилов
Язык : Russian
Default : Нет
Forced : Нет

Аудио #3
Идентификатор : 4
Формат : DTS XLL
Формат/Информация : Digital Theater Systems
Коммерческое название : DTS-HD Master Audio
Идентификатор кодека : A_DTS
Продолжительность : 1 ч. 59 м.
Вид битрейта : Переменный
Битрейт : 3271 Кбит/сек
Каналы : 6 каналов
ChannelLayout : C L R Ls Rs LFE
Частота : 48,0 КГц
Частота кадров : 93,750 кадра/сек (512 SPF)
Битовая глубина : 24 бит
Метод сжатия : Без потерь
Размер потока : 2,72 Гбайт (4%)
Заголовок : В. Дохалов
Язык : Russian
Default : Нет
Forced : Нет

Аудио #4
Идентификатор : 5
Формат : DTS XLL
Формат/Информация : Digital Theater Systems
Коммерческое название : DTS-HD Master Audio
Идентификатор кодека : A_DTS
Продолжительность : 1 ч. 59 м.
Вид битрейта : Переменный
Битрейт : 3304 Кбит/сек
Каналы : 6 каналов
ChannelLayout : C L R Ls Rs LFE
Частота : 48,0 КГц
Частота кадров : 93,750 кадра/сек (512 SPF)
Битовая глубина : 24 бит
Метод сжатия : Без потерь
Размер потока : 2,75 Гбайт (4%)
Заголовок : В. Котов
Язык : Russian
Default : Нет
Forced : Нет

Аудио #5
Идентификатор : 6
Формат : DTS XLL
Формат/Информация : Digital Theater Systems
Коммерческое название : DTS-HD Master Audio
Идентификатор кодека : A_DTS
Продолжительность : 1 ч. 59 м.
Вид битрейта : Переменный
Битрейт : 3267 Кбит/сек
Каналы : 6 каналов
ChannelLayout : C L R Ls Rs LFE
Частота : 48,0 КГц
Частота кадров : 93,750 кадра/сек (512 SPF)
Битовая глубина : 24 бит
Метод сжатия : Без потерь
Размер потока : 2,72 Гбайт (4%)
Язык : English
Default : Нет
Forced : Нет

Текст #1
Идентификатор : 7
Формат : UTF-8
Идентификатор кодека : S_TEXT/UTF8
Идентификатор кодека/Информация : UTF-8 Plain Text
Продолжительность : 1 ч. 50 м.
Битрейт : 3 бит/сек
ElementCount : 62
Размер потока : 3,13 Кбайт (0%)
Заголовок : forced
Язык : Russian
Default : Да
Forced : Нет

Текст #2
Идентификатор : 8
Формат : UTF-8
Идентификатор кодека : S_TEXT/UTF8
Идентификатор кодека/Информация : UTF-8 Plain Text
Продолжительность : 1 ч. 55 м.
Битрейт : 100 бит/сек
ElementCount : 1680
Размер потока : 85,1 Кбайт (0%)
Заголовок : Blu-Ray
Язык : Russian
Default : Нет
Forced : Нет

Текст #3
Идентификатор : 9
Формат : UTF-8
Идентификатор кодека : S_TEXT/UTF8
Идентификатор кодека/Информация : UTF-8 Plain Text
Продолжительность : 1 ч. 55 м.
Битрейт : 109 бит/сек
ElementCount : 1589
Размер потока : 92,9 Кбайт (0%)
Заголовок : FOCS
Язык : Russian
Default : Нет
Forced : Нет

Текст #4
Идентификатор : 10
Формат : UTF-8
Идентификатор кодека : S_TEXT/UTF8
Идентификатор кодека/Информация : UTF-8 Plain Text
Продолжительность : 1 ч. 53 м.
Битрейт : 67 бит/сек
ElementCount : 1651
Размер потока : 56,7 Кбайт (0%)
Заголовок : full
Язык : English
Default : Нет
Forced : Нет

Текст #5
Идентификатор : 11
Формат : UTF-8
Идентификатор кодека : S_TEXT/UTF8
Идентификатор кодека/Информация : UTF-8 Plain Text
Продолжительность : 1 ч. 57 м.
Битрейт : 70 бит/сек
ElementCount : 1747
Размер потока : 60,8 Кбайт (0%)
Заголовок : SDH
Язык : English
Default : Нет
Forced : Нет

Меню
00:00:00.000 : en:Chapter 01
00:05:41.758 : en:Chapter 02
00:07:33.203 : en:Chapter 03
00:10:40.932 : en:Chapter 04
00:16:24.025 : en:Chapter 05
00:21:23.282 : en:Chapter 06
00:29:08.747 : en:Chapter 07
00:36:03.703 : en:Chapter 08
00:41:49.424 : en:Chapter 09
00:47:11.078 : en:Chapter 10
00:50:08.881 : en:Chapter 11
00:54:40.527 : en:Chapter 12
00:57:27.152 : en:Chapter 13
00:59:16.470 : en:Chapter 14
01:04:37.290 : en:Chapter 15
01:07:27.877 : en:Chapter 16
01:12:12.912 : en:Chapter 17
01:17:50.249 : en:Chapter 18
01:19:20.422 : en:Chapter 19
01:24:02.913 : en:Chapter 20
01:28:33.099 : en:Chapter 21
01:32:41.514 : en:Chapter 22
01:42:27.433 : en:Chapter 23
01:46:07.653 : en:Chapter 24
01:50:50.936 : en:Chapter 25
01:54:55.263 : en:Chapter 26

pb.wtf



Скачать Удача Логана через торрент http://img12.lostpic.net/2018/01/02/61707e38707910966100195ef39ac74c.jpg Скачать фильм Удача Логана через торрент бесплантно в хорошем качестве Описание: Уволили с работы? Подготовь самое дерзкое ограбление в истории! Джимми Логан молниеносно подбирает команду «специалистов», ... 10 10 4
Торрент: Зарегистрирован [2019-10-12 05:58] · скачан: 1 раз
Статус: √ проверено
Размер: 64.54 GB
Как cкачать? Как скачать Удача Логана через торрент | qTorrent


>> Регистрируемся здесь <<






Отзывы и комментарии о схеме читаем и пишем здесь: ---> Отзывы и комментарии о схеме

Новые благодарочки в телеграм довольных пользователей:
скриншот   скриншот   скриншот   скриншот   скриншот
    Дорогой пользователь! Огромная просьба, поблагодарите релизера, оцените раздачу и оставьте свои комментарий, если Вы скачали Удача Логана через торрент бесплатно! Внесите свою лепту в развитие PiratBit!
    Комментировать посты могут только пользователи прошедшие не сложную регистрацию
    Показать сообщения:    

    Удача Логана через торрент
    Скачать бесплатно Удача Логана
    Удача Логана скачать торрент
    Удача Логана смотреть онлайн
    Cкачать фильм Удача Логана бесплатно
    Удача Логана скачать торрент в хорошем качестве
    Удача Логана смотреть онлайн бесплатно в хорошем качестве


    Вы не можете начинать темы
    Вы не можете отвечать на сообщения
    Вы не можете редактировать свои сообщения
    Вы не можете удалять свои сообщения
    Вы не можете голосовать в опросах
    Вы не можете прикреплять файлы к сообщениям
    Вы можете скачивать файлы