Ссылка на приватное зеркало нашего сайта всего за 1$. Внимание количество ограничено!!!

2 сезон

iTunes

1 сезон

1

2 сезон

2 сезон

iTunes

1 сезон

RePack

30

Новинка

ВАЖНО

ИГРА 18+

pack

RePack

MK11
pack

Забери бонус

RePack

jed

!!Акция!!

Alien_Rage

RePack

fifa19

RePack

Assassins Creed: Odyssey

RePack

NEED FOR SPEED™ PAYBACK

4 сезон

9 сезон

Бесстыжие 9 сезон

Все сериалы

все сериалы на PB.wtf

RePack

FAR CRY 5
  

Мост / Bron/Broen / Сезон 4 / Серии 1-8 из 8 (Хенрик Георгссон , Румле Хаммерих , Шарлотта Зилинг) [2018, триллер, криминал, детектив, HDTVRip 720p] MVO [Novamedia] pb.wtf

Мост через торрент pb.wtf

Размер: 8.45 GB | Добавлен: 2 года 9 мес. назад | Торрент скачан:134 раза
Скачать  

02-01-2018 19:50 Мост Скачать торрент  

Мост / Bron/BroenГод выпуска: 2018
Страна: Швеция, Дания, Германия
Жанр: триллер, криминал, детектив
Продолжительность: ~01:00:00 серия
Перевод: Профессиональный многоголосый - Novamedia по заказу Amedia
Субтитры: Норвежские

Режиссер: Хенрик Георгссон , Румле Хаммерих , Шарлотта Зилинг



В ролях:

София Хелин (Saga Norén), Ким Бодния (Martin), Туре Линдхардт (Henrik), Даг Малмберг (Hans), Сара Боберг (Lillian), Рафаэль Петтерссон (John), Гэбриел Флорес Жаир (Obducent), Ребека Баркланд (Body Double Saga), Пак Шарбау (Mette), Ларс Симонсен (Jens), Хенрик Лундстрем (Rasmus), Клас Картеруд (Paramedics)

Описание:

Четвертый и заключительный сезон атмосферного детектива – новая головоломка и очередное высказывание о скрытых пороках далеко не идеального скандинавского социума. После событий прошлого сезона прошло около двух лет. Карьера и будущее детектива Саги Норен оказываются буквально в шаге от краха – ее подозревают в страшном преступлении. Однако финальному делу все равно быть, и оно станет незабываемым во всех отношениях. Героиня воссоединится со своим партнером Хенриком, и это станет проверкой их особой духовной связи. По словам создателей, прощаться с Сагой грустно, но финал так хорош, что оно того стоит.

Качество: HDTVRip 720p
Формат: MKV
Видео кодек: H.264
Аудио кодек: AC3/AAC-LC

Видео: 1280х720 at 25.000 fps, x264, ~2250 kbps avg
Аудио#1: Russian: 48 kHz, AC3, 2/0 (L,R) ch, ~192 kbps avg |Многоголосый закадровый, Novamedia по заказу Amedia|
Аудио#2: Danish: 48 kHz, AAC-LC, 2/0 (L,R) ch, ~160 kbps avg
скриншот   скриншот   скриншот   скриншот  

Общее
Уникальный идентификатор : 227199463116210885420825096739640855243 (0xAAED06623BBA56908449220D28D04ACB)
Полное имя : D:\Broen (Season 04) 720\Broen.S04E01.720p.Amedia.mkv
Формат : Matroska
Версия формата : Version 4 / Version 2
Размер файла : 1,05 Гбайт
Продолжительность : 57 м. 32 с.
Общий поток : 2600 Кбит/сек
Дата кодирования : UTC 2018-01-02 07:46:18
Программа кодирования : mkvmerge v8.3.0 ('Over the Horizon') 64bit
Библиотека кодирования : libebml v1.3.1 + libmatroska v1.4.2

Видео
Идентификатор : 1
Формат : AVC
Формат/Информация : Advanced Video Codec
Профиль формата : High@L3.1
Параметр CABAC формата : Да
Параметр ReFrames формата : 5 кадров
Идентификатор кодека : V_MPEG4/ISO/AVC
Продолжительность : 57 м. 32 с.
Битрейт : 2250 Кбит/сек
Ширина : 1280 пикселей
Высота : 720 пикселей
Соотношение сторон : 16:9
Режим частоты кадров : Постоянный
Частота кадров : 25,000 кадров/сек
Цветовое пространство : YUV
Субдискретизация насыщенности : 4:2:0
Битовая глубина : 8 бит
Тип развёртки : Прогрессивная
Бит/(Пиксели*Кадры) : 0.098
Размер потока : 924 Мбайт (86%)
Библиотека кодирования : x264 core 146
Настройки программы : cabac=1 / ref=5 / deblock=1:0:0 / analyse=0x3:0x113 / me=hex / subme=7 / psy=0 / mixed_ref=1 / me_range=16 / chroma_me=1 / trellis=1 / 8x8dct=1 / cqm=0 / deadzone=21,11 / fast_pskip=1 / chroma_qp_offset=0 / threads=7 / lookahead_threads=1 / sliced_threads=0 / nr=0 / decimate=1 / interlaced=0 / paff=0 / bluray_compat=0 / constrained_intra=0 / bframes=3 / b_pyramid=2 / b_adapt=1 / b_bias=0 / direct=1 / weightb=1 / open_gop=0 / weightp=2 / keyint=125 / keyint_min=12 / scenecut=0 / intra_refresh=0 / rc_lookahead=60 / rc=abr / mbtree=1 / bitrate=2250 / ratetol=1.0 / qcomp=0.60 / qpmin=0 / qpmax=69 / qpstep=4 / vbv_maxrate=2812 / vbv_bufsize=4500 / nal_hrd=none / filler=0 / ip_ratio=1.00 / aq=2:1.00
Язык : Danish
Default : Да
Forced : Нет

Аудио #1
Идентификатор : 2
Формат : AC-3
Формат/Информация : Audio Coding 3
Расширение режима : CM (complete main)
Параметр Endianness формата : Big
Идентификатор кодека : A_AC3
Продолжительность : 57 м. 32 с.
Вид битрейта : Постоянный
Битрейт : 192 Кбит/сек
Каналы : 2 канала
Расположение каналов : Front: L R
Частота : 48,0 КГц
Частота кадров : 31,250 кадров/сек (1536 spf)
Метод сжатия : С потерями
Задержка видео : -80 мс.
Размер потока : 79,0 Мбайт (7%)
Язык : Russian
Default : Да
Forced : Нет

Аудио #2
Идентификатор : 3
Формат : AAC
Формат/Информация : Advanced Audio Codec
Профиль формата : LC
Идентификатор кодека : A_AAC
Продолжительность : 57 м. 32 с.
Битрейт : 160 Кбит/сек
Каналы : 2 канала
Расположение каналов : Front: L R
Частота : 48,0 КГц
Частота кадров : 46,875 кадров/сек (1024 spf)
Метод сжатия : С потерями
Задержка видео : -80 мс.
Размер потока : 65,9 Мбайт (6%)
Язык : Danish
Default : Нет
Forced : Нет

Текст
Идентификатор : 4
Формат : UTF-8
Идентификатор кодека : S_TEXT/UTF8
Идентификатор кодека/Информация : UTF-8 Plain Text
Продолжительность : 51 м. 54 с.
Битрейт : 47 бит/сек
Count of elements : 397
Размер потока : 18,1 Кбайт (0%)
Язык : Norwegian
Default : Нет
Forced : Нет

Когда раздача ведётся путём добавления новых серий, при каждом добавлении создётся новый торрент. Чтобы начать докачку новой серии, пользователям необходимо сделать следующее:
(1) остановить скачивание,
(2) удалить старый торрент у себя из клиента (старые серии удалять не надо),
(3) скачать новый торрент и запустить его у себя в клиенте вместо старого, при этом указать клиенту путь в старую папку, куда и должно происходить скачивание новых серий.
Ваш клиент при этом должен произвести хеширование (проверку) старой папки (если не производит сам - помогите ему сделать это), и будет докачивать только те серии, которых у вас ещё нет. Старые серии при этом не удаляются, а продолжают раздаваться!
Eсли вы уже удалили старые серии, то предотвратить повторную закачку старых серий можно, отжав галочку в соответсвующих местах при запуске нового торрента. По возможности, желательно не удалять старые серии как можно дольше, чтобы релизёр не столько продолжал раздавать старые серии, а смог сконцентрироваться на новых.
pb.wtf



Скачать Мост через торрент http://img12.lostpic.net/2018/01/02/4fd1a436a6d7940887b90535e6c92266.png Скачать фильм Мост через торрент бесплантно в хорошем качестве Описание: Четвертый и заключительный сезон атмосферного детектива – новая головоломка и очередное высказывание о скрытых пороках далеко не ... 8.9 10 8
Торрент: Зарегистрирован [2018-02-19 14:04] · скачан: 134 раз
Статус: √ проверено
Размер: 8.45 GB
Как cкачать? Как скачать Мост через торрент | qTorrent

% Раздел Тема Автор DL S | L
Зарубежные сериалы [ 21.33 GB ] Мост / Bron/Broen / Сезон 4 / Серии 1-8 из 8 [2018 HDTV 1080p] MVO [Novamedia] bober100 Скачать
1 | 0
Зарубежные сериалы [ 5.47 GB ] Мост / Bron/Broen / Сезон 4 / Серии 1-8 из 8 [2018 HDTVRip] MVO [Novamedia] bober100 Скачать
1 | 0
Зарубежные сериалы [ 8.88 GB ] Мост / Bron/Broen / Сезон: 4 / Серии: 1-8 из 8 [2018 HDTVRip 720p] MVO [Jaskier] bober100 Скачать
1 | 0
Зарубежные сериалы [ 5.78 GB ] Мост / Bron/Broen / Сезон: 4 / Серии: 1-8 из 8 [2018 HDTVRip] MVO [Jaskier] bober100 Скачать
1 | 0


Последний раз редактировалось: bober100 (2018-02-19 14:04), всего редактировалось 2 раз(а)

28-11-2019 20:33  

Отключить всю рекламу на сайте

29-01-2018 11:56 Мост Скачать торрент  

+5pb.wtf



13-02-2018 02:55 Мост Скачать торрент  

+7pb.wtf



19-02-2018 14:04 Мост Скачать торрент  

+8. Сезон полностью!!!pb.wtf



    Дорогой пользователь! Огромная просьба, поблагодарите релизера, оцените раздачу и оставьте свои комментарий, если Вы скачали Мост через торрент бесплатно! Внесите свою лепту в развитие PiratBit!
    Комментировать посты могут только пользователи прошедшие не сложную регистрацию
    Показать сообщения:    

    Мост через торрент
    Скачать бесплатно Мост
    Мост скачать торрент
    Мост смотреть онлайн
    Cкачать фильм Мост бесплатно
    Мост скачать торрент в хорошем качестве
    Мост смотреть онлайн бесплатно в хорошем качестве


    Вы не можете начинать темы
    Вы не можете отвечать на сообщения
    Вы не можете редактировать свои сообщения
    Вы не можете удалять свои сообщения
    Вы не можете голосовать в опросах
    Вы не можете прикреплять файлы к сообщениям
    Вы можете скачивать файлы