Ссылка на приватное зеркало нашего сайта всего за 1$. Внимание количество ограничено!!!

2 сезон

iTunes

1 сезон

1

iTunes

iTunes

iTunes

1 сезон

RePack

30

ИГРА 18+

pack

ВАЖНО

!!Акция!!

Alien_RageХит недели

RePack

MK11
pack

Забери бонус

RePack

jed

!!Акция!!

Alien_Rage

RePack

fifa19

RePack

Assassins Creed: Odyssey

RePack

NEED FOR SPEED™ PAYBACK

4 сезон

9 сезон

Бесстыжие 9 сезон

Все сериалы

все сериалы на PB.wtf

RePack

FAR CRY 5
  

Сальса / Сезон 1 / Серии 1-2 из 12 (Иван Глубоков) [2018, Мелодрама, SATRip] pb.wtf

Сальса через торрент pb.wtf

Размер: 1.37 GB | Добавлен: 2 года 9 мес. назад | Торрент скачан:21 раз
Скачать  

03-01-2018 12:48 Сальса Скачать торрент  

СальсаГод выпуска: 2018
Страна: Россия
Жанр: Мелодрама
Продолжительность: x ~ 00:40:00
Перевод: Оригинал
Субтитры: отсутствуют

Режиссер: Иван Глубоков



В ролях:

Павел Делонг, Алёна Бабенко, Борис Хвошнянский, Диана Эстрада, Анна Ардова, Александр Семчев, Даниил Воробьёв, Ангелина Стречина, Артём Ешкин, Светлана Тимофеева-Летуновская, Павел Онежин

Описание:

Сальса – латиноамериканский танец, яркие эмоции и энергетика которого способны растопить даже снег в России. Неудивительно, что в орбиту сальсы втягиваются совершенно разные люди, которые хотят что-то изменить в своей жизни, наполнить её смыслом и новыми красками. Реализовать их можно в сальсе, ведь каждый танец – это маленькая история любви. Ирина Каневская тоже попадает под обаяние сальсы. Руководитель департамента банка, сделавшая успешную карьеру, она давно уже засиделась на своей скучной работе и потеряла вкус к жизни. Но неожиданная встреча с Игорем Самойловым, опытным сальсеро, всё кардинально меняет в ее жизни.

Качество: SATRip
Формат: AVI
Видео кодек: XviD
Аудио кодек: MP3

Видео: ~ 1800 Кбит/с, 720x304
Аудио: MP3, 2 ch, 128 Кбит/с
скриншот  скриншот  скриншот  

Общее
Полное имя : D:\Salsa.01.SATRip.[www.riperam.org].avi
Формат : AVI
Формат/Информация : Audio Video Interleave
Размер файла : 700 Мбайт
Продолжительность : 50 м. 24 с.
Общий поток : 1942 Кбит/сек

Видео
Идентификатор : 0
Формат : MPEG-4 Visual
Профиль формата : Advanced Simple@L5
Параметр BVOP формата : 2
Параметр QPel формата : Нет
Параметр GMC формата : Без точки перехода
Параметр матрицы формата : Default (H.263)
Идентификатор кодека : XVID
Идентификатор кодека/Подсказка : XviD
Продолжительность : 50 м. 24 с.
Битрейт : 1800 Кбит/сек
Ширина : 720 пикселей
Высота : 304 пикселя
Соотношение сторон : 2,35:1
Частота кадров : 25,000 кадров/сек
Цветовое пространство : YUV
Субдискретизация насыщенности : 4:2:0
Битовая глубина : 8 бит
Тип развёртки : Прогрессивная
Метод сжатия : С потерями
Бит/(Пиксели*Кадры) : 0.329
Размер потока : 649 Мбайт (93%)
Библиотека кодирования : XviD 1.2.1 (UTC 2008-12-04)

Аудио
Идентификатор : 1
Формат : MPEG Audio
Версия формата : Version 1
Профиль формата : Layer 3
Режим : Joint stereo
Расширение режима : MS Stereo
Идентификатор кодека : 55
Идентификатор кодека/Подсказка : MP3
Продолжительность : 50 м. 24 с.
Вид битрейта : Постоянный
Битрейт : 128 Кбит/сек
Каналы : 2 канала
Частота : 48,0 КГц
Метод сжатия : С потерями
Размер потока : 46,2 Мбайт (7%)
Выравнивание : Соединение по промежуткам
Продолжительность промежутка : 24 мс. (0,60 видеокадр)
Библиотека кодирования : LAME3.99r
Настройки программы : -m j -V 4 -q 9 -lowpass 17 -b 128

Когда раздача ведётся путём добавления новых серий, при каждом добавлении создётся новый торрент. Чтобы начать докачку новой серии, пользователям необходимо сделать следующее:
(1) остановить скачивание,
(2) удалить старый торрент у себя из клиента (старые серии удалять не надо),
(3) скачать новый торрент и запустить его у себя в клиенте вместо старого, при этом указать клиенту путь в старую папку, куда и должно происходить скачивание новых серий.
Ваш клиент при этом должен произвести хеширование (проверку) старой папки (если не производит сам - помогите ему сделать это), и будет докачивать только те серии, которых у вас ещё нет. Старые серии при этом не удаляются, а продолжают раздаваться!
Eсли вы уже удалили старые серии, то предотвратить повторную закачку старых серий можно, отжав галочку в соответсвующих местах при запуске нового торрента. По возможности, желательно не удалять старые серии как можно дольше, чтобы релизёр не столько продолжал раздавать старые серии, а смог сконцентрироваться на новых.
pb.wtf



Скачать Сальса через торрент https://b.radikal.ru/b22/1801/e8/fe7204921c68.jpg Скачать фильм Сальса через торрент бесплантно в хорошем качестве Описание: Сальса – латиноамериканский танец, яркие эмоции и энергетика которого способны растопить даже снег в России. Неудивительно, что в ... 8 10 3
Торрент: Зарегистрирован [2018-01-03 14:04] · скачан: 21 раз
Статус: √ проверено
Размер: 1.37 GB
Как cкачать? Как скачать Сальса через торрент | qTorrent

28-11-2019 20:33  

Отключить всю рекламу на сайте

    Дорогой пользователь! Огромная просьба, поблагодарите релизера, оцените раздачу и оставьте свои комментарий, если Вы скачали Сальса через торрент бесплатно! Внесите свою лепту в развитие PiratBit!
    Комментировать посты могут только пользователи прошедшие не сложную регистрацию
    Показать сообщения:    

    Сальса через торрент
    Скачать бесплатно Сальса
    Сальса скачать торрент
    Сальса смотреть онлайн
    Cкачать фильм Сальса бесплатно
    Сальса скачать торрент в хорошем качестве
    Сальса смотреть онлайн бесплатно в хорошем качестве


    Вы не можете начинать темы
    Вы не можете отвечать на сообщения
    Вы не можете редактировать свои сообщения
    Вы не можете удалять свои сообщения
    Вы не можете голосовать в опросах
    Вы не можете прикреплять файлы к сообщениям
    Вы можете скачивать файлы